Регистрация / Смена пароля

💬 Мини-чат

moonson: Alex302, ну, сообственно туда всем нашим врагам и дорога. Жалко только враг Жан-Поля застрял на 16 % и ни туда, и ни сюда 😄
Alex302: moonson, труп вашего врага растащило вороньё)
  • amina130777
  • animen67
  • drclik
  • garant3v
  • Leon20052
Отправка сообщений доступно только зарегистрированным/авторизованным пользователям.
Онлайн (за 10 мин.): 5

Мир Дикого Запада / Westworld (2018) [2 сезон] BDRip 1080p [HEVC] 10 bit от OldGamer

HEVC
10 bit
Обложка Мир Дикого Запада / Westworld (2018) [2 сезон] BDRip 1080p [HEVC] 10 bit от OldGamer Год: 2018
Страна: США
Студия: Warner Bros. Television, Bad Robot Productions
Жанр: Фантастика, Драма, Детектив, Вестерн
Продолжительность: 10:36:15

Режиссер: Ричард Дж. Льюис, Фред Туа, Винченцо Натали
В ролях: Эван Рэйчел Вуд, Тэнди Ньютон, Джеффри Райт, Джеймс Марсден, Эд Харрис, Энтони Хопкинс, Анджела Сарафян, Тесса Томпсон, Люк Хемсворт, Саймон Куотерман

Описание: В футуристическом парке развлечений «Мир Дикого Запада» специально сконструированные андроиды выполняют любые прихоти посетителей, чтобы те чувствовали безнаказанность и полную свободу действий. Если робота убили — не беда, техники его починят, сотрут память и снова поставят в строй, навстречу новому дню и новым людским прихотям. Но оказывается, что далеко не все роботы теряют воспоминания.

Серии
Westworld.s02e01. Путешествие в ночь
Westworld.s02e02. Воссоединение
Westworld.s02e03. Достоинство и удача
Westworld.s02e04. Загадка Сфинкса
Westworld.s02e05. Танец Аканэ
Westworld.s02e06. Фазовое пространство
Westworld.s02e07. Экорше
Westworld.s02e08. Киксуя
Westworld.s02e09. Точка схода
Westworld.s02e10. Пассажиры
КиноПоиск
8.016 101486
IMDb
8.7
400585


Видео: 1920x1080, 4059-7857 Kbps
Аудио: AC3, 6 ch, 640 Kbps -
Русский, Дублированный (AMedia)
Субтитры: Русские (форсированные)

Медиаинфо
Формат : Matroska
Версия формата : Version 4
Размер файла : 2,60 Гбайт
Продолжительность : 58 м. 26 с.
Общий поток : 6361 Кбит/сек
Название фильма : Танец Акане
Трек/Положение : 15/20
Описание : Телезрители познакомятся с еще одним парком на японскую тематику, куда попадает хозяйка борделя Мейв Милли. Добро пожаловать, в мир сёгунов, самураев и обворожительных гейш!
Дата кодирования : UTC 2018-12-28 15:53:26
Программа кодирования : mkvmerge v29.0.0 ('Like It Or Not') 64-bit
Библиотека кодирования : libebml v1.3.6 + libmatroska v1.4.9 / Lavf57.71.100
Примечание : Rip by OldGamer
Attachments : poster.jpg / backdrop.jpg
ACTORS : Evan Rachel Wood, Thandie Newton, Jeffrey Wright, James Marsden, Tessa Thompson, Ed Harris, Anthony Hopkins, Ingrid Bolsø Berdal, Clifton Collins Jr., Fares Fares, Luke Hemsworth, Katja Herbers, Louis Herthum, Zahn McClarnon, Simon Quarterman, Talulah Riley, Rodrigo Santoro, Angela Sarafyan, Gustaf Skarsgård, Shannon Woodward
ALBUM : Мир Дикого Запада, Сезон 1-2
COUNTRY : United States
DATE : 2018-05-20
ENCODING_INFO : MATROSKA,WEBM > MKV / H264 > X265 CRF 19.0 Very Slow / AC3 > COPY Безопасное / DTS-HD MA > COPY Безопасное
EPISODE_SORT : 5
GENRE : Вестерн, Фантастика
HD_VIDEO : 1
ITUNEXTC : us-tv|TV-MA|600|
Язык : und
MEDIA_TYPE : 10
NETWORK : HBO
PRODUCER : Stephen Semel, Carly Wray
PUBLISHER : Warner Bros. Television, Jerry Weintraub Productions, Bad Robot, Kilter Films
RATING : 8.10
SEASON_NUMBER : 2
SHOW : Мир Дикого Запада
WRITER : Jonathan Nolan, Lisa Joy

Видео
Идентификатор : 1
Формат : HEVC
Формат/Информация : High Efficiency Video Coding
Профиль формата : Main 10@L5.1@High
Идентификатор кодека : V_MPEGH/ISO/HEVC
Продолжительность : 58 м. 26 с.
Битрейт : 5719 Кбит/сек
Ширина : 1920 пикселей
Высота : 1080 пикселей
Соотношение сторон : 16:9
Режим частоты кадров : Постоянный
Частота кадров : 23,976 (24000/1001) кадра/сек
Цветовое пространство : YUV
Субдискретизация насыщенности : 4:2:0
Битовая глубина : 10 бит
Бит/(Пиксели*Кадры) : 0.115
Размер потока : 2,33 Гбайт (90%)
Библиотека кодирования : x265 2.9+9-f74003e88622:[Mac OS X][clang 9.1.0][64 bit] 10bit
Настройки программы : cpuid=1111039 / frame-threads=14 / wpp / no-pmode / no-pme / no-psnr / no-ssim / log-level=3 / input-csp=1 / input-res=1920x1080 / interlace=0 / total-frames=0 / level-idc=51 / high-tier=1 / uhd-bd=0 / ref=5 / allow-non-conformance / no-repeat-headers / annexb / no-aud / no-hrd / info / hash=0 / no-temporal-layers / open-gop / min-keyint=23 / keyint=240 / gop-lookahead=0 / bframes=14 / b-adapt=2 / b-pyramid / bframe-bias=0 / rc-lookahead=60 / lookahead-slices=6 / scenecut=40 / radl=0 / no-intra-refresh / ctu=64 / min-cu-size=8 / rect / amp / max-tu-size=32 / tu-inter-depth=4 / tu-intra-depth=4 / limit-tu=1 / rdoq-level=2 / dynamic-rd=0.00 / no-ssim-rd / signhide / no-tskip / nr-intra=0 / nr-inter=0 / no-constrained-intra / no-strong-intra-smoothing / max-merge=5 / limit-refs=2 / no-limit-modes / me=3 / subme=7 / merange=57 / temporal-mvp / weightp / weightb / no-analyze-src-pics / deblock=-3:-3 / no-sao / no-sao-non-deblock / rd=6 / no-early-skip / rskip / no-fast-intra / no-tskip-fast / no-cu-lossless / no-b-intra / no-splitrd-skip / rdpenalty=0 / psy-rd=2.00 / psy-rdoq=1.00 / no-rd-refine / no-lossless / cbqpoffs=0 / crqpoffs=0 / rc=crf / crf=19.0 / qcomp=0.60 / qpstep=4 / stats-write=0 / stats-read=0 / vbv-maxrate=90000 / vbv-bufsize=90000 / vbv-init=0.9 / crf-max=0.0 / crf-min=0.0 / ipratio=1.40 / pbratio=1.30 / aq-mode=2 / aq-strength=0.80 / cutree / zone-count=0 / no-strict-cbr / qg-size=32 / no-rc-grain / qpmax=69 / qpmin=0 / no-const-vbv / sar=1 / overscan=0 / videoformat=5 / range=0 / colorprim=2 / transfer=2 / colormatrix=2 / chromaloc=0 / display-window=0 / max-cll=0,0 / min-luma=0 / max-luma=1023 / log2-max-poc-lsb=8 / vui-timing-info / vui-hrd-info / slices=1 / no-opt-qp-pps / no-opt-ref-list-length-pps / no-multi-pass-opt-rps / scenecut-bias=0.00 / no-opt-cu-delta-qp / aq-motion / no-hdr / no-hdr-opt / no-dhdr10-opt / no-idr-recovery-sei / analysis-reuse-level=5 / scale-factor=0 / refine-intra=0 / refine-inter=0 / refine-mv=0 / no-limit-sao / ctu-info=0 / no-lowpass-dct / refine-mv-type=0 / copy-pic=1 / max-ausize-factor=1.0 / no-dynamic-refine / no-single-sei
Язык : English
Default : Да
Forced : Нет

Аудио
Идентификатор : 2
Формат : AC-3
Формат/Информация : Audio Coding 3
Коммерческое название : Dolby Digital
Идентификатор кодека : A_AC3
Продолжительность : 58 м. 26 с.
Вид битрейта : Постоянный
Битрейт : 640 Кбит/сек
Каналы : 6 каналов
Channel layout : L R C LFE Ls Rs
Частота : 48,0 КГц
Частота кадров : 31,250 кадров/сек (1536 SPF)
Битовая глубина : 16 бит
Метод сжатия : С потерями
Размер потока : 267 Мбайт (10%)
Заголовок : Dub
Язык : Russian
ServiceKind/String : Complete Main
Default : Да
Forced : Нет

Текст
Идентификатор : 3
Формат : UTF-8
Идентификатор кодека : S_TEXT/UTF8
Идентификатор кодека/Информация : UTF-8 Plain Text
Продолжительность : 50 м. 2 с.
Битрейт : 23 бит/сек
ElementCount : 179
Размер потока : 8,59 Кбайт (0%)
Заголовок : Forced
Язык : Russian
Default : Да
Forced : Да

Меню
00:00:00.000 : :Chapter 1
00:01:40.725 : :Chapter 2
00:07:31.033 : :Chapter 3
00:16:15.724 : :Chapter 4
00:28:09.854 : :Chapter 5
00:39:55.851 : :Chapter 6
00:47:12.162 : :Chapter 7
00:57:16.891 : :Chapter 8
Cкриншот1 Мир Дикого Запада / Westworld (2018) [2 сезон] BDRip 1080p [HEVC] 10 bit от OldGamer
Загружается...
Cкриншот2 Мир Дикого Запада / Westworld (2018) [2 сезон] BDRip 1080p [HEVC] 10 bit от OldGamer
Загружается...
Cкриншот3 Мир Дикого Запада / Westworld (2018) [2 сезон] BDRip 1080p [HEVC] 10 bit от OldGamer
Загружается...
Cкриншот4 Мир Дикого Запада / Westworld (2018) [2 сезон] BDRip 1080p [HEVC] 10 bit от OldGamer
Загружается...
Сэмпл Торрент🧲 Магнет

Кнопки "Позвать в чате" и "Спасибо" доступны только зарегистрированным/авторизованным пользователям!

Файлы: 10
  • Westworld. S02
    • S02E01. Путешествие в ночь.mkv   2.74 ГБ
    • S02E02. Воссоединение.mkv   1.9 ГБ
    • S02E03. Достоинство и удача.mkv   2.54 ГБ
    • S02E04. Загадка Сфинкса.mkv   4.2 ГБ
    • S02E05. Танец Акане.mkv   2.6 ГБ
    • S02E06. Фазовое пространство.mkv   2.66 ГБ
    • S02E07. Экорше.mkv   2.79 ГБ
    • S02E08. Киксуя.mkv   3.41 ГБ
    • S02E09. Точка схода.mkv   3.04 ГБ
    • S02E10. Пассажир.mkv   3.3 ГБ
Поблагодарили: 16
375509, AD_60, amkarovec, angel, boxgas, brukvalub, clever_mind, Egor, Gampeldor, garant3v, HANNIBAL, makss333, NoMaD, NRK888, stormbringer, zasxdcfvv
OldGamer
61219101 (10)  29.18 ГБ

Добавление нового комментария

Добавление комментариев доступно только зарегистрированным/авторизованным пользователям.
Аватар OldGamer
  OldGamer  
vash1 писал(а):
Битрейт : 640 Кбит/сек
Размер потока : 267 Мбайт (10%)
Там оригинал был DTS-HD MA
Аватар vash1
  vash1  
OldGamer писал(а):
по гигабайту на серию... не стал
Битрейт : 640 Кбит/сек
Размер потока : 267 Мбайт (10%)
Аватар vash1
  vash1  
Отличный релиз. Очень жаль что без оригинала...
Аватар Moderh
  Moderh  
Egor писал(а):
Спасибо,ещё бы оригинальную дорожку добавить))
Неужели на зарубежных сайтах нет ? Как я,так задолбался удалять зарубежные дорожки .
Аватар OldGamer
  OldGamer  
Egor писал(а):
Спасибо,ещё бы оригинальную дорожку добавить))
по гигабайту на серию... не стал
Аватар Egor
  Egor  
Спасибо,ещё бы оригинальную дорожку добавить))