Регистрация / Смена пароля

💬 Мини-чат

moonson: Alex302, ну, сообственно туда всем нашим врагам и дорога. Жалко только враг Жан-Поля застрял на 16 % и ни туда, и ни сюда 😄
Alex302: moonson, труп вашего врага растащило вороньё)
  • 7654321
  • brukvalub
  • garant3v
  • mehanik2915
  • phillip
Отправка сообщений доступно только зарегистрированным/авторизованным пользователям.
Онлайн (за 10 мин.): 5

Рэмбо IV / Rambo (2007) [Theatrical Version] BDRip 1080p [HEVC] 10 bit от OldGamer

HEVC
10 bit
Обложка Рэмбо IV / Rambo (2007) [Theatrical Version] BDRip 1080p [HEVC] 10 bit от OldGamer Год: 2007
Страна: США, Германия
Студия: Millennium Films
Жанр: Боевик, Триллер, Военный
Продолжительность: 01:31:32

Режиссер: Сильвестр Сталлоне
В ролях: Сильвестр Сталлоне, Джули Бенц, Мэттью Мэрсден, Грэм МакТавиш, Рейнальдо Гальегос, Джэйк Ла Ботц, Тим Кенг, Манг Манг Хим, Пол Шульц, Камерон Пирсон

Описание: Вьетнамский ветеран Джон Рэмбо ведет уединенный образ жизни на окраине Бангкока. Уставший от борьбы и кровопролития, скрываясь от проблем, он селится в небольшом доме у реки и проводит дни, ремонтируя старые лодки и катера. Однако судьба вновь заставляет его взяться за оружие. Собрав отряд из пяти наемников, Рэмбо встает на защиту жителей тайской деревни и американских миссионеров, которых захватили в заложники бирманские боевики.

КиноПоиск
6.867 47184
IMDb
7
213298


Видео: 1920x798, 10100 Kbps
Аудио1: DTS, 6 ch, 754 Kbps -
Русский, Дублированный (Лицензия)
Аудио2: AC3, 6 ch, 448 Kbps -
Русский, Авторский (Андрей Гаврилов)
Субтитры: отсутствуют

Как за пару секунд удалить ненужные аудиодорожки и субтитры (Внимание! После удаления вы не сможете поддержать раздачу)

Медиаинфо
Формат : Matroska
Версия формата : Version 4
Размер файла : 7,21 Гбайт
Продолжительность : 1 ч. 31 м.
Общий поток : 11,3 Мбит/сек
Название фильма : Рэмбо IV
Дата кодирования : UTC 2018-11-21 13:13:13
Программа кодирования : mkvmerge v28.1.0 ('Morning Child') 64-bit
Библиотека кодирования : libebml v1.3.6 + libmatroska v1.4.9 / Lavf57.71.100
Примечание : Rip by OldGamer
Attachments : poster.jpg
ACTORS : Сильвестр Сталлоне, Джули Бенц,
COUNTRY : Германия
DATE : 2007
DIRECTOR : Сильвестр Сталлоне
ENCODING_INFO : MATROSKA,WEBM > MKV / H264 > X265 CRF 18.0 Very Slow / DTS > COPY Безопасное / AC3 > COPY Безопасное / AC3 > COPY Безопасное / AC3 > COPY Безопасное
GENRE : Боевик, Триллер, Военный
HD_VIDEO : 1
Язык : und
MEDIA_TYPE : 9
ORIGINAL_TITLE : Rambo

Видео
Идентификатор : 1
Формат : HEVC
Формат/Информация : High Efficiency Video Coding
Профиль формата : Main 10@L4.1@High
Идентификатор кодека : V_MPEGH/ISO/HEVC
Продолжительность : 1 ч. 31 м.
Битрейт : 10,1 Мбит/сек
Ширина : 1920 пикселей
Высота : 798 пикселей
Соотношение сторон : 2,40:1
Режим частоты кадров : Постоянный
Частота кадров : 23,976 (24000/1001) кадра/сек
Цветовое пространство : YUV
Субдискретизация насыщенности : 4:2:0
Битовая глубина : 10 бит
Бит/(Пиксели*Кадры) : 0.274
Размер потока : 6,44 Гбайт (89%)
Библиотека кодирования : x265 2.8+74-fd517ae68f93:[Mac OS X][clang 9.1.0][64 bit] 10bit
Настройки программы : cpuid=1111039 / frame-threads=3 / wpp / no-pmode / no-pme / no-psnr / no-ssim / log-level=3 / input-csp=1 / input-res=1920x798 / interlace=0 / total-frames=0 / level-idc=41 / high-tier=1 / uhd-bd=0 / ref=5 / allow-non-conformance / no-repeat-headers / annexb / no-aud / no-hrd / info / hash=0 / no-temporal-layers / open-gop / min-keyint=23 / keyint=240 / gop-lookahead=0 / bframes=8 / b-adapt=2 / b-pyramid / bframe-bias=0 / rc-lookahead=60 / lookahead-slices=5 / scenecut=40 / radl=0 / no-intra-refresh / ctu=64 / min-cu-size=8 / rect / amp / max-tu-size=32 / tu-inter-depth=4 / tu-intra-depth=4 / limit-tu=1 / rdoq-level=2 / dynamic-rd=0.00 / no-ssim-rd / signhide / no-tskip / nr-intra=0 / nr-inter=0 / no-constrained-intra / no-strong-intra-smoothing / max-merge=5 / limit-refs=2 / no-limit-modes / me=3 / subme=7 / merange=57 / temporal-mvp / weightp / weightb / no-analyze-src-pics / deblock=-3:-3 / no-sao / no-sao-non-deblock / rd=6 / no-early-skip / rskip / no-fast-intra / no-tskip-fast / no-cu-lossless / no-b-intra / no-splitrd-skip / rdpenalty=0 / psy-rd=2.00 / psy-rdoq=1.00 / no-rd-refine / no-lossless / cbqpoffs=0 / crqpoffs=0 / rc=crf / crf=18.0 / qcomp=0.60 / qpstep=4 / stats-write=0 / stats-read=0 / vbv-maxrate=50000 / vbv-bufsize=50000 / vbv-init=0.9 / crf-max=0.0 / crf-min=0.0 / ipratio=1.40 / pbratio=1.30 / aq-mode=2 / aq-strength=1.00 / cutree / zone-count=0 / no-strict-cbr / qg-size=32 / no-rc-grain / qpmax=69 / qpmin=0 / no-const-vbv / sar=1 / overscan=0 / videoformat=5 / range=0 / colorprim=1 / transfer=1 / colormatrix=1 / chromaloc=0 / display-window=0 / max-cll=0,0 / min-luma=0 / max-luma=1023 / log2-max-poc-lsb=8 / vui-timing-info / vui-hrd-info / slices=1 / no-opt-qp-pps / no-opt-ref-list-length-pps / no-multi-pass-opt-rps / scenecut-bias=0.00 / no-opt-cu-delta-qp / aq-motion / no-hdr / no-hdr-opt / no-dhdr10-opt / no-idr-recovery-sei / analysis-reuse-level=5 / scale-factor=0 / refine-intra=0 / refine-inter=0 / refine-mv=0 / no-limit-sao / ctu-info=0 / no-lowpass-dct / refine-mv-type=0 / copy-pic=1 / max-ausize-factor=1.0 / no-dynamic-refine / no-single-sei
Язык : English
Default : Да
Forced : Нет
Цветовой диапазон : Limited
Основные цвета : BT.709
Характеристики трансфера : BT.709
Коэффициенты матрицы : BT.709

Аудио #1
Идентификатор : 2
Формат : DTS
Формат/Информация : Digital Theater Systems
Идентификатор кодека : A_DTS
Продолжительность : 1 ч. 31 м.
Вид битрейта : Постоянный
Битрейт : 754 Кбит/сек
Каналы : 6 каналов
Channel layout : C L R Ls Rs LFE
Частота : 48,0 КГц
Частота кадров : 93,750 кадра/сек (512 SPF)
Битовая глубина : 24 бит
Метод сжатия : С потерями
Размер потока : 494 Мбайт (7%)
Заголовок : Дублированный
Язык : Russian
Default : Да
Forced : Нет

Аудио #2
Идентификатор : 3
Формат : AC-3
Формат/Информация : Audio Coding 3
Коммерческое название : Dolby Digital
Идентификатор кодека : A_AC3
Продолжительность : 1 ч. 31 м.
Вид битрейта : Постоянный
Битрейт : 448 Кбит/сек
Каналы : 6 каналов
Channel layout : L R C LFE Ls Rs
Частота : 48,0 КГц
Частота кадров : 31,250 кадров/сек (1536 SPF)
Битовая глубина : 16 бит
Метод сжатия : С потерями
Размер потока : 293 Мбайт (4%)
Заголовок : Андрей Гаврилов
Язык : Russian
Service kind : Complete Main
Default : Нет
Forced : Нет

Меню
00:00:00.000 : :Chapter 01
00:05:00.133 : :Chapter 02
00:09:59.974 : :Chapter 03
00:14:59.648 : :Chapter 04
00:20:00.574 : :Chapter 05
00:24:59.789 : :Chapter 06
00:30:00.423 : :Chapter 07
00:35:00.306 : :Chapter 08
00:40:00.106 : :Chapter 09
00:45:00.572 : :Chapter 10
00:50:00.288 : :Chapter 11
00:55:00.588 : :Chapter 12
01:00:00.597 : :Chapter 13
01:05:00.438 : :Chapter 14
01:10:00.404 : :Chapter 15
01:14:59.620 : :Chapter 16
01:19:59.878 : :Chapter 17
01:25:00.178 : :Chapter 18
01:30:00.478 : :Chapter 19
Cкриншот1 Рэмбо IV / Rambo (2007) [Theatrical Version] BDRip 1080p [HEVC] 10 bit от OldGamer
Загружается...
Cкриншот2 Рэмбо IV / Rambo (2007) [Theatrical Version] BDRip 1080p [HEVC] 10 bit от OldGamer
Загружается...
Cкриншот3 Рэмбо IV / Rambo (2007) [Theatrical Version] BDRip 1080p [HEVC] 10 bit от OldGamer
Загружается...
Cкриншот4 Рэмбо IV / Rambo (2007) [Theatrical Version] BDRip 1080p [HEVC] 10 bit от OldGamer
Загружается...
Сэмпл Торрент🧲 Магнет

Кнопки "Позвать в чате" и "Спасибо" доступны только зарегистрированным/авторизованным пользователям!

Раздача обновлена!
Переименован файл

Файлы: 1
  • Рэмбо IV. Rambo.2007.1920x798.mkv   7.21 ГБ
Поблагодарили: 9
brukvalub, davidoff_k4, denisptp4, FireIce, grudich, ivs5, pri_vet, Vandamme_71, zzzlayasss
OldGamer
2101057.21 ГБ

Добавление нового комментария

Добавление комментариев доступно только зарегистрированным/авторизованным пользователям.
Аватар OldGamer
  OldGamer  
AlexTwitt писал(а):
Раздайте, пожалуйста
постою на раздаче до пятницы, перекачай торрент
Аватар AlexTwitt
  AlexTwitt  
Раздайте, пожалуйста