Регистрация / Смена пароля

💬 Мини-чат

moonson: Alex302, ну, сообственно туда всем нашим врагам и дорога. Жалко только враг Жан-Поля застрял на 16 % и ни туда, и ни сюда 😄
Alex302: moonson, труп вашего врага растащило вороньё)
  • garant3v
  • iona999
  • Leon20052
Отправка сообщений доступно только зарегистрированным/авторизованным пользователям.
Онлайн (за 10 мин.): 3

Доспехи бога: В поисках сокровищ / Gong fu yu jia (2017) BDRip 1080p [HEVC] 10 bit от joker63

HEVC
10 bit
Обложка Доспехи бога: В поисках сокровищ / Gong fu yu jia (2017) BDRip 1080p [HEVC] 10 bit от joker63 Год: 2017
Страна: Китай, Индия, Непал
Жанр: Фэнтези, Боевик, Комедия, Приключения
Продолжительность: 01:47:00

Режиссер: Стэнли Тун
В ролях: Джеки Чан, Аариф Ли, Исин Чжан, Сону Суд, Мия Муци, Диша Патани, Амира Дастур, Чжан Голи, Ху Мин, Эрик Цан, Фатих Угурлу, Дэмиэн Мевис, Кевин Ли, Томер Оз, Пол Филип Кларк, Эскиндир Тесфай

Описание: Профессора археологии Джека Си ждет по-настоящему увлекательное приключение. Нужно разгадать массу загадок и найти несметные сокровища древнего королевства. За самым большим кладом в истории охотится еще и могущественный преступный синдикат. Джеку вместе с командой предстоит проявить умения и смекалку, и завоевать сердце принцессы.

КиноПоиск
5.416 14194
IMDb
5.2
8473


Видео: 1920x808, 6815 Kbps
Аудио: A_DTS, 6 ch, 1509 Kbps -
Русский, Дублированный (Лицензия BD RUS)
Субтитры: Нет

Медиаинфо
Общее
Уникальный идентификатор : 271382475718266513150184473972626539812 (0xCC2A5D174CB8DA7D4590EF1DB5EDC524)
Полное имя : F:\Джекки Чан\Доспехи бога В поисках сокровищ 4 (Кунг-фу йога) Gong Fu Yu Jia (Kung-Fu Yoga) (2017)BDRip 1080p [HEVC] 10 bit.mkv
Формат : Matroska
Версия формата : Version 4
Размер файла : 6,22 Гбайт
Продолжительность : 1 ч. 47 м.
Общий поток : 8327 Кбит/сек
Название фильма : Доспехи бога 4_рип от Joker63
Дата кодирования : UTC 2019-07-07 21:53:01
Программа кодирования : mkvmerge v35.0.0 ('All The Love In The World') 64-bit
Библиотека кодирования : libebml v1.3.9 + libmatroska v1.5.2
Обложка : Yes
Attachments : cover.jpg

Видео
Идентификатор : 1
Формат : HEVC
Формат/Информация : High Efficiency Video Coding
Профиль формата : Main 10@L5.1@Main
Идентификатор кодека : V_MPEGH/ISO/HEVC
Продолжительность : 1 ч. 47 м.
Битрейт : 6815 Кбит/сек
Ширина : 1920 пикселей
Высота : 808 пикселей
Соотношение сторон : 2,40:1
Режим частоты кадров : Постоянный
Частота кадров : 24,000 кадра/сек
Цветовое пространство : YUV
Субдискретизация насыщенности : 4:2:0
Битовая глубина : 10 бит
Бит/(Пиксели*Кадры) : 0.183
Размер потока : 5,09 Гбайт (82%)
Библиотека кодирования : x265 2.8+74-fd517ae68f93:[Windows][GCC 7.3.0][64 bit] 10bit
Настройки программы : cpuid=1049583 / frame-threads=5 / numa-pools=4 / wpp / no-pmode / no-pme / no-psnr / no-ssim / log-level=3 / input-csp=1 / input-res=1920x808 / interlace=0 / total-frames=0 / level-idc=51 / high-tier=1 / uhd-bd=0 / ref=5 / allow-non-conformance / no-repeat-headers / annexb / no-aud / no-hrd / info / hash=0 / no-temporal-layers / open-gop / min-keyint=24 / keyint=240 / gop-lookahead=0 / bframes=8 / b-adapt=2 / b-pyramid / bframe-bias=0 / rc-lookahead=40 / lookahead-slices=5 / scenecut=40 / radl=0 / no-intra-refresh / ctu=64 / min-cu-size=8 / no-rect / no-amp / max-tu-size=32 / tu-inter-depth=1 / tu-intra-depth=1 / limit-tu=0 / rdoq-level=0 / dynamic-rd=0.00 / no-ssim-rd / signhide / no-tskip / nr-intra=0 / nr-inter=0 / no-constrained-intra / strong-intra-smoothing / max-merge=2 / limit-refs=3 / no-limit-modes / me=1 / subme=5 / merange=57 / temporal-mvp / weightp / no-weightb / no-analyze-src-pics / deblock=-3:-3 / sao / no-sao-non-deblock / rd=3 / no-early-skip / rskip / no-fast-intra / no-tskip-fast / no-cu-lossless / no-b-intra / no-splitrd-skip / rdpenalty=0 / psy-rd=2.00 / psy-rdoq=0.00 / no-rd-refine / no-lossless / cbqpoffs=0 / crqpoffs=0 / rc=cbr / bitrate=7000 / qcomp=0.50 / qpstep=4 / stats-write=0 / stats-read=0 / vbv-maxrate=7000 / vbv-bufsize=5000 / vbv-init=0.9 / ipratio=1.40 / pbratio=1.30 / aq-mode=1 / aq-strength=1.00 / cutree / zone-count=0 / no-strict-cbr / qg-size=32 / no-rc-grain / qpmax=69 / qpmin=0 / no-const-vbv / sar=1 / overscan=0 / videoformat=5 / range=0 / colorprim=2 / transfer=2 / colormatrix=2 / chromaloc=0 / display-window=0 / max-cll=0,0 / min-luma=0 / max-luma=1023 / log2-max-poc-lsb=8 / vui-timing-info / vui-hrd-info / slices=1 / no-opt-qp-pps / no-opt-ref-list-length-pps / no-multi-pass-opt-rps / scenecut-bias=0.05 / no-opt-cu-delta-qp / no-aq-motion / no-hdr / no-hdr-opt / no-dhdr10-opt / no-idr-recovery-sei / analysis-reuse-level=5 / scale-factor=0 / refine-intra=0 / refine-inter=0 / refine-mv=0 / no-limit-sao / ctu-info=0 / no-lowpass-dct / refine-mv-type=0 / copy-pic=1 / max-ausize-factor=1.0 / no-dynamic-refine / no-single-sei
Default : Да
Forced : Нет

Аудио
Идентификатор : 2
Формат : DTS
Формат/Информация : Digital Theater Systems
Идентификатор кодека : A_DTS
Продолжительность : 1 ч. 47 м.
Вид битрейта : Постоянный
Битрейт : 1509 Кбит/сек
Каналы : 6 каналов
ChannelLayout : C L R Ls Rs LFE
Частота : 48,0 КГц
Частота кадров : 93,750 кадра/сек (512 SPF)
Битовая глубина : 24 бит
Метод сжатия : С потерями
Размер потока : 1,13 Гбайт (18%)
Заголовок : Дубляж
Язык : Russian
Default : Да
Forced : Нет
Cкриншот1 Доспехи бога: В поисках сокровищ / Gong fu yu jia (2017) BDRip 1080p [HEVC] 10 bit от joker63
Загружается...
Cкриншот2 Доспехи бога: В поисках сокровищ / Gong fu yu jia (2017) BDRip 1080p [HEVC] 10 bit от joker63
Загружается...
Cкриншот3 Доспехи бога: В поисках сокровищ / Gong fu yu jia (2017) BDRip 1080p [HEVC] 10 bit от joker63
Загружается...
Cкриншот4 Доспехи бога: В поисках сокровищ / Gong fu yu jia (2017) BDRip 1080p [HEVC] 10 bit от joker63
Загружается...
Сэмпл Торрент🧲 Магнет

Кнопки "Позвать в чате" и "Спасибо" доступны только зарегистрированным/авторизованным пользователям!

Раздача обновлена!
Перекачайте торрент файл,звук переделан.

Файлы: 1
  • Доспехи бога В поисках сокровищ 4 (Кунг-фу йога) Gong Fu Yu Jia (Kung-Fu Yoga) (2017)BDRip 1080p [HEVC] 10 bit.mkv   6.22 ГБ
Поблагодарили: 4
2ps63, brukvalub, svibog123, ригиль
joker63
928206.22 ГБ

Добавление нового комментария

Добавление комментариев доступно только зарегистрированным/авторизованным пользователям.
Аватар Aleks_DW
  Aleks_DW  
XuMuK писал(а):
Я догнал. Можешь дальше ничего не писать. Ты в принципе не понял о чём говорю
Ну да, ну да.
Все вокруг дураки, только местные админы еынму, только они понимают суть темы и разговора.
Ок, флаг вам в руки ....
Аватар XuMuK
  XuMuK  
Aleks_DW писал(а):
Ну, я думаю это сделали те кто всем этим занимается, имея ввиду професионально, в студии или как то так, кто дублирует , и озвучивает. Наверное делать больше было нечего 😁
Иначе бы было указано авторство дороги, на Кинозале так делают.
Хотя, и там уже стал бардак.
Я догнал. Можешь дальше ничего не писать. Ты в принципе не понял о чём говорю
Аватар Aleks_DW
  Aleks_DW  
XuMuK писал(а):
Да это всё понятно. Я не говорю, что не верю))
Просто интересно, кто приложил руку к такой дорожке. Ну скажем Sergesha мог такое сотворить, ну может быть ash. Ну а так я просто в догадках.
Ну, я думаю это сделали те кто всем этим занимается, имея ввиду професионально, в студии или как то так, кто дублирует , и озвучивает. Наверное делать больше было нечего 😁
Иначе бы было указано авторство дороги, на Кинозале так делают.
Хотя, и там уже стал бардак.
Аватар XuMuK
  XuMuK  
Aleks_DW писал(а):
Доспехи бога: В поисках сокровищ (Кунг-фу йога) / Gong Fu Yu Jia (Kung-Fu Yoga) / 2017 / ДБ / RUS Transfer / Blu-Ray (1080p)
Релиз:
Лицензия BD RUS
Вот тут медиаинфо: http://pasted.co/11becdc0
Да это всё понятно. Я не говорю, что не верю))
Просто интересно, кто приложил руку к такой дорожке. Ну скажем Sergesha мог такое сотворить, ну может быть ash. Ну а так я просто в догадках.
Аватар Aleks_DW
  Aleks_DW  
XuMuK писал(а):
Ну самому такое скодить проблематично. (вернее можно просто раздуть, а не по настоящему получить такой формат) Ссылку открыть не могу-провайдер запрещает. Но такое могут сделать пару человек от силы
Доспехи бога: В поисках сокровищ (Кунг-фу йога) / Gong Fu Yu Jia (Kung-Fu Yoga) / 2017 / ДБ / RUS Transfer / Blu-Ray (1080p)
Релиз:
Лицензия BD RUS
Вот тут медиаинфо: http://pasted.co/11becdc0
Аватар XuMuK
  XuMuK  
joker63 писал(а):
Такой скачал,и не кодил,просто вставил.Вот с этой раздачи http://kinozal.tv/details.php?id=1556324.
Ну самому такое скодить проблематично. (вернее можно просто раздуть, а не по настоящему получить такой формат) Ссылку открыть не могу-провайдер запрещает. Но такое могут сделать пару человек от силы
Аватар joker63
  joker63  
Такой скачал,и не кодил,просто вставил.Вот с этой раздачи http://kinozal.tv/details.php?id=1556324.
Аватар XuMuK
  XuMuK  
Дубляж в DTS-HD Master Audio?
Кто делал?
Аватар Moderh
  Moderh  
Звук,звук,звук !!!!! Ура ! Спасибо ! Побольше таких фильмов , с хорошим звуком ! Не смотрел и не качаю , пока нет возможности,но обязательно . Огромное спасибо !