Обложка Пассажир / The Commuter (2018) BDRip 1080p [HEVC] 10 bit от HANNIBALОбложка Привидение / Every Day (2018) BDRip 1080p [HEVC] 8 bit от M@kSIMusОбложка Бамблби / Bumblebee (2018) BDRip 1080p [HEVC] 10 bit от HANNIBALОбложка Агент Джонни Инглиш 3.0 / Johnny English Strikes Again (2018) BDRip 1080p [HEVC] 10 bit от OldGamerОбложка Щелкунчик и четыре королевства / The Nutcracker and the Four Realms (2018) BDRip 1080p [HEVC] 10 bit от M@kSIMusОбложка Капитан Марвел / Captain Marvel (2019) BDRip 1080p [HEVC] 10 bit от HANNIBALОбложка Кин / Kin (2018) BDRip 1080p [HEVC] 10 bit от HANNIBALОбложка Tarja Turunen - Act II (2018) BDRip 1080p [HEVC] 8 bit от ADVOKAT69Обложка The Morricone Duel The Most Dangerous Concert Ever (2018) BDRip 1080p [HEVC] 10 bit от ADVOKAT69Обложка Аннигиляция / Annihilation (2018) BDRip 1080p [HEVC] 10 bit от XuMuK

Авторизация

Смена пароля

captcha

Регистрация

captcha

🔍 Поиск

Мини-чат

(19:28)dixen18: Доброго вечера всем) Скажите а по странам тут нельзя сортировку делать да?
(19:36)OldGamer: dixen18, нет
(20:03)dixen18: OldGamer, ну ничего страшного)
(22:08)PRO-USTAS: привет админ такая идея а можно сделать сортировку по пользевателям типа фильмы только от Mr. Fox и тогдалия
(23:41)Kaban: PRO-USTAS, можно ввести в поиске вместо фильма логин аплоадера и в результате вам выдаст все его раздачи
(10:13)Temir_Nator: Всем привет)) А бывают раздачи в OPEN MATE формате?))) Если есть возможность, делайте и OPEN MATE)))
(10:29)OldGamer: Бывают
(11:22)Kaban: OldGamer, но редко)
(12:32)Temir_Nator: Жаль :(
(14:18)Ярослав: День добрый всем. Александра (Финальная версия) поможет кто раздать?
(14:18)Ярослав: https://hevc-club.video/video-1388/
(14:24)OldGamer: Может Джокер попозже заглянет, его релиз
(20:05)GrandConvoy: Раздайте, пожалуйста, Хищник 2 / Predator 2 (1990) BDRip 1080p [HEVC] 10 bit от HANNIBAL
(23:24)joker63: Ярослав, Перекачай торрент файл по новому,я обновил раздачу постою на ней немного.Ночью не стою.
(19:06)Ярослав: GrandConvoy, Встал на раздачу.
(19:50)GrandConvoy: Раздайте, пожалуйста, Хищник 2 / Predator 2 (1990) BDRip 1080p [HEVC] 10 bit от HANNIBAL
(19:51)GrandConvoy: ЯрославЯрослав, Что то не скачивается(
(19:51)GrandConvoy: Привет
(19:51)GrandConvoy: У меня на NAS торент стоит уже второй день( Загрузки нет(
  • dreadl0ck
  • iona999
  • melnik-10
  • Vitoss6
Онлайн: 4
Отправка сообщений доступно только зарегистрированным/авторизованным пользователям.

Суперсемейка 2 / Incredibles 2 (2018) BDRip 1080p [HEVC] 10 bit от M@kSIMus

HEVC
10 bit
Обложка Суперсемейка 2 / Incredibles 2 (2018) BDRip 1080p [HEVC] 10 bit от M@kSIMus Год: 2018
Страна: США
Студия: Pixar Animation Studios, Walt Disney Pictures
Жанр: Мультфильм, Фантастика, Боевик, Комедия
Продолжительность: 01:57:50

Режиссер: Брэд Бёрд
В ролях: Крэйг Т. Нельсон, Холли Хантер, Сара Вауэлл, Хак Милнер, Кэтрин Кинер, Илай Фучиле, Боб Оденкёрк, Сэмюэл Л. Джексон, Майкл Бёрд, София Буш

Описание: После событий первой части суперсемейка пользуется повышенным вниманием со стороны журналистов. Неожиданно оказалось, что обаятельная Миссис Исключительная гораздо лучше смотрится на экране телевизора, чем её муж. Мистеру Исключительному все чаще приходится сидеть дома и приглядывать за детьми, у каждого из которых есть свои причины быть недовольным собственными суперспособностями. Однако семейным проблемам предстоит отступить на второй план, когда окажется, что спокойствию Суперсемейки угрожает новый могущественный враг.


7.33951344
7.7
219250


Формат: MKV
Видео: 1920x804, 5962 Kbps
Аудио1: AC3, 6 ch, 384 Kbps -
Русский, Дублированный (iTunes)

Аудио2: AC3, 6 ch, 448 Kbps -
Английский, Оригинал

Субтитры: Русские (форсированные, полные)

Как за пару секунд удалить ненужные аудиодорожки и субтитры (Внимание! После удаления вы не сможете поддержать раздачу)

Медиаинфо
Общее
Уникальный идентификатор : 276908755428884080395119922795966553794 (0xD052AFB78A40DC7BD74C5B25335ADEC2)
Полное имя : E:\Фильмы\Мультфильмы\Суперсемейка 2 (2018) BDRip 1080p [HEVC] 10 bit.mkv
Формат : Matroska
Версия формата : Version 4 / Version 2
Размер файла : 5,59 Гбайт
Продолжительность : 1 ч. 57 м.
Общий поток : 6796 Кбит/сек
Название фильма : Rip_by_M@kSIMus
Дата кодирования : UTC 2018-11-06 14:55:43
Программа кодирования : mkvmerge v28.0.0 ('Voice In My Head') 64-bit
Библиотека кодирования : libebml v1.3.6 + libmatroska v1.4.9
Обложка : Yes
Attachments : cover.jpg

Видео
Идентификатор : 1
Формат : HEVC
Формат/Информация : High Efficiency Video Coding
Профиль формата : Main 10@L4.1@High
Идентификатор кодека : V_MPEGH/ISO/HEVC
Продолжительность : 1 ч. 57 м.
Битрейт : 5962 Кбит/сек
Ширина : 1920 пикселей
Высота : 804 пикселя
Соотношение сторон : 2,40:1
Режим частоты кадров : Постоянный
Частота кадров : 23,976 (24000/1001) кадра/сек
Цветовое пространство : YUV
Субдискретизация насыщенности : 4:2:0
Битовая глубина : 10 бит
Бит/(Пиксели*Кадры) : 0.161
Размер потока : 4,91 Гбайт (88%)
Библиотека кодирования : x265 2.8+74-fd517ae68f93:[Windows][GCC 7.3.0][64 bit] 10bit
Настройки программы : cpuid=1049583 / frame-threads=5 / numa-pools=4 / wpp / no-pmode / no-pme / no-psnr / no-ssim / log-level=3 / input-csp=1 / input-res=1920x804 / interlace=0 / total-frames=0 / level-idc=41 / high-tier=1 / uhd-bd=0 / ref=5 / allow-non-conformance / no-repeat-headers / annexb / no-aud / no-hrd / info / hash=0 / no-temporal-layers / open-gop / min-keyint=24 / keyint=240 / gop-lookahead=0 / bframes=8 / b-adapt=2 / b-pyramid / bframe-bias=0 / rc-lookahead=40 / lookahead-slices=5 / scenecut=40 / radl=0 / no-intra-refresh / ctu=64 / min-cu-size=8 / no-rect / no-amp / max-tu-size=32 / tu-inter-depth=1 / tu-intra-depth=1 / limit-tu=0 / rdoq-level=0 / dynamic-rd=0.00 / no-ssim-rd / signhide / no-tskip / nr-intra=0 / nr-inter=0 / no-constrained-intra / strong-intra-smoothing / max-merge=2 / limit-refs=3 / no-limit-modes / me=3 / subme=7 / merange=57 / temporal-mvp / weightp / no-weightb / no-analyze-src-pics / deblock=-3:-3 / no-sao / no-sao-non-deblock / rd=3 / no-early-skip / rskip / no-fast-intra / no-tskip-fast / no-cu-lossless / no-b-intra / no-splitrd-skip / rdpenalty=0 / psy-rd=2.00 / psy-rdoq=0.00 / no-rd-refine / no-lossless / cbqpoffs=0 / crqpoffs=0 / rc=crf / crf=16.0 / qcomp=0.60 / qpstep=4 / stats-write=0 / stats-read=0 / vbv-maxrate=50000 / vbv-bufsize=50000 / vbv-init=0.9 / crf-max=0.0 / crf-min=0.0 / ipratio=1.40 / pbratio=1.30 / aq-mode=1 / aq-strength=1.00 / cutree / zone-count=0 / no-strict-cbr / qg-size=32 / no-rc-grain / qpmax=69 / qpmin=0 / no-const-vbv / sar=1 / overscan=0 / videoformat=5 / range=0 / colorprim=1 / transfer=1 / colormatrix=1 / chromaloc=0 / display-window=0 / max-cll=0,0 / min-luma=0 / max-luma=1023 / log2-max-poc-lsb=8 / vui-timing-info / vui-hrd-info / slices=1 / no-opt-qp-pps / no-opt-ref-list-length-pps / no-multi-pass-opt-rps / scenecut-bias=0.05 / no-opt-cu-delta-qp / no-aq-motion / no-hdr / no-hdr-opt / no-dhdr10-opt / no-idr-recovery-sei / analysis-reuse-level=5 / scale-factor=0 / refine-intra=0 / refine-inter=0 / refine-mv=0 / no-limit-sao / ctu-info=0 / no-lowpass-dct / refine-mv-type=0 / copy-pic=1 / max-ausize-factor=1.0 / no-dynamic-refine / no-single-sei
Язык : English
Default : Да
Forced : Нет
Цветовой диапазон : Limited
Основные цвета : BT.709
Характеристики трансфера : BT.709
Коэффициенты матрицы : BT.709

Аудио #1
Идентификатор : 2
Формат : AC-3
Формат/Информация : Audio Coding 3
Идентификатор кодека : A_AC3
Продолжительность : 1 ч. 57 м.
Вид битрейта : Постоянный
Битрейт : 384 Кбит/сек
Каналы : 6 каналов
Расположение каналов : Front: L C R, Side: L R, LFE
Частота : 48,0 КГц
Частота кадров : 31,250 кадров/сек (1536 SPF)
Битовая глубина : 16 бит
Метод сжатия : С потерями
Размер потока : 324 Мбайт (6%)
Заголовок : iTunes
Язык : Russian
ServiceKind/String : Complete Main
Default : Да
Forced : Нет

Аудио #2
Идентификатор : 3
Формат : AC-3
Формат/Информация : Audio Coding 3
Идентификатор кодека : A_AC3
Продолжительность : 1 ч. 57 м.
Вид битрейта : Постоянный
Битрейт : 448 Кбит/сек
Каналы : 6 каналов
Расположение каналов : Front: L C R, Side: L R, LFE
Частота : 48,0 КГц
Частота кадров : 31,250 кадров/сек (1536 SPF)
Битовая глубина : 16 бит
Метод сжатия : С потерями
Размер потока : 378 Мбайт (7%)
Заголовок : Original
Язык : English
ServiceKind/String : Complete Main
Default : Нет
Forced : Нет

Текст #1
Идентификатор : 4
Формат : UTF-8
Идентификатор кодека : S_TEXT/UTF8
Идентификатор кодека/Информация : UTF-8 Plain Text
Продолжительность : 1 ч. 7 м.
Битрейт : 0 бит/сек
ElementCount : 3
Размер потока : 203 байт (0%)
Заголовок : Forced
Язык : Russian
Default : Да
Forced : Нет

Текст #2
Идентификатор : 5
Формат : UTF-8
Идентификатор кодека : S_TEXT/UTF8
Идентификатор кодека/Информация : UTF-8 Plain Text
Продолжительность : 1 ч. 55 м.
Битрейт : 118 бит/сек
ElementCount : 1760
Размер потока : 101 Кбайт (0%)
Заголовок : Full
Язык : Russian
Default : Нет
Forced : Нет

Меню
00:00:00.000 : :00:00:00.000
00:03:22.327 : :00:03:22.327
00:08:53.616 : :00:08:53.616
00:09:36.784 : :00:09:36.784
00:13:38.276 : :00:13:38.276
00:15:44.735 : :00:15:44.735
00:21:19.737 : :00:21:19.737
00:23:28.282 : :00:23:28.282
00:27:08.794 : :00:27:08.794
00:28:59.571 : :00:28:59.571
00:35:10.900 : :00:35:10.900
00:39:07.845 : :00:39:07.845
00:42:43.894 : :00:42:43.894
00:43:42.411 : :00:43:42.411
00:47:35.352 : :00:47:35.352
00:48:53.889 : :00:48:53.889
00:54:15.585 : :00:54:15.585
00:56:16.039 : :00:56:16.039
01:00:58.696 : :01:00:58.696
01:02:01.884 : :01:02:01.884
01:06:55.511 : :01:06:55.511
01:09:18.237 : :01:09:18.237
01:11:28.200 : :01:11:28.200
01:12:37.686 : :01:12:37.686
01:14:39.266 : :01:14:39.266
01:18:00.968 : :01:18:00.968
01:20:32.536 : :01:20:32.536
01:25:01.930 : :01:25:01.930
01:27:59.440 : :01:27:59.440
01:31:53.925 : :01:31:53.925
01:33:26.434 : :01:33:26.434
01:36:25.237 : :01:36:25.237
01:37:45.192 : :01:37:45.192
01:43:56.897 : :01:43:56.897
01:45:35.912 : :01:45:35.912
01:47:30.902 : :01:47:30.902
Cкриншот1 Суперсемейка 2 / Incredibles 2 (2018) BDRip 1080p [HEVC] 10 bit от M@kSIMus
Загружается...
Cкриншот2 Суперсемейка 2 / Incredibles 2 (2018) BDRip 1080p [HEVC] 10 bit от M@kSIMus
Загружается...
Cкриншот3 Суперсемейка 2 / Incredibles 2 (2018) BDRip 1080p [HEVC] 10 bit от M@kSIMus
Загружается...
Cкриншот4 Суперсемейка 2 / Incredibles 2 (2018) BDRip 1080p [HEVC] 10 bit от M@kSIMus
Загружается...
СэмплТоррентМагнет

Кнопки "Позвать в чате", "Спасибо" и "Пожертвование" доступны только зарегистрированным/авторизованным пользователям!

Поблагодарили: 5
brukvalub, inoy, pivorogan, SwX8, veRBlut
06.11.2018  20:45:21
4
412
0
0
5.59 ГБ

Добавление нового комментария

Добавление комментариев доступно только зарегистрированным/авторизованным пользователям.
Аватар jacklip48
  jacklip48  09.04.2019  09:21:40
Уже давно есть релизы с лицензионным переводом. Здесь ожидается замена дороги?
Аватар Kaban
  Kaban  07.11.2018  15:55:37
animen67 писал(а):
Спасибо! Будет ли первая часть?
первая часть есть на старом сайте
Аватар animen67
  animen67  07.11.2018  14:26:23
Спасибо! Будет ли первая часть?
Аватар anderb
  anderb  07.11.2018  06:30:31
Спасибо!