Обложка Капкан / Craw (2019) BDRip 1080p [HEVC] 10 bit от HANNIBALОбложка Люди Икс: Тёмный Феникс / Dark Phoenix (2019) BDRip 1080p [HEVC] 10 bit от HANNIBALОбложка Angry Birds: Дилогия / Angry Birds: Dilogy (2016-2019) BDRip 1080p [HEVC] 10 bit от M@kSIMusОбложка Судная ночь. Начало / The First Purge (2018) BDRip 1080p [HEVC] 10 bit от HANNIBALОбложка Покемон. Детектив Пикачу / Pokémon Detective Pikachu (2019) BDRip 1080p [HEVC] 10 bit от HANNIBALОбложка Мир Юрского периода 2 / Jurassic World: Fallen Kingdom (2018) UHD-BDRip 2160p [HEVC] 10 bit [HDR] от HANNIBALОбложка Излом времени / A Wrinkle in Time (2018) BDRip 1080p [HEVC] 10 bit от M@kSIMusОбложка Белый парень Рик / White Boy Rick (2018) BDRip 1080p [HEVC] 10 bit от HANNIBALОбложка Простая просьба / A Simple Favor (2018) BDRip 1080p [HEVC] 8 bit от CthulhuОбложка Клаустрофобы / Escape Room (2019) BDRip 1080p [HEVC] 10 bit от M@kSIMus

Авторизация

Смена пароля

captcha

Регистрация

captcha

🔍 Поиск

Мини-чат

(19:28)dixen18: Доброго вечера всем) Скажите а по странам тут нельзя сортировку делать да?
(19:36)OldGamer: dixen18, нет
(20:03)dixen18: OldGamer, ну ничего страшного)
(22:08)PRO-USTAS: привет админ такая идея а можно сделать сортировку по пользевателям типа фильмы только от Mr. Fox и тогдалия
(23:41)Kaban: PRO-USTAS, можно ввести в поиске вместо фильма логин аплоадера и в результате вам выдаст все его раздачи
(10:13)Temir_Nator: Всем привет)) А бывают раздачи в OPEN MATE формате?))) Если есть возможность, делайте и OPEN MATE)))
(10:29)OldGamer: Бывают
(11:22)Kaban: OldGamer, но редко)
(12:32)Temir_Nator: Жаль :(
(14:18)Ярослав: День добрый всем. Александра (Финальная версия) поможет кто раздать?
(14:18)Ярослав: https://hevc-club.video/video-1388/
(14:24)OldGamer: Может Джокер попозже заглянет, его релиз
(20:05)GrandConvoy: Раздайте, пожалуйста, Хищник 2 / Predator 2 (1990) BDRip 1080p [HEVC] 10 bit от HANNIBAL
(23:24)joker63: Ярослав, Перекачай торрент файл по новому,я обновил раздачу постою на ней немного.Ночью не стою.
(19:06)Ярослав: GrandConvoy, Встал на раздачу.
(19:50)GrandConvoy: Раздайте, пожалуйста, Хищник 2 / Predator 2 (1990) BDRip 1080p [HEVC] 10 bit от HANNIBAL
(19:51)GrandConvoy: ЯрославЯрослав, Что то не скачивается(
(19:51)GrandConvoy: Привет
(19:51)GrandConvoy: У меня на NAS торент стоит уже второй день( Загрузки нет(
  • joker63
  • Fender61
  • iona999
  • solohin1006
Онлайн: 4
Отправка сообщений доступно только зарегистрированным/авторизованным пользователям.

Кролик Питер / Peter Rabbit (2018) BDRip 1080p [HEVC] 10 bit от OldGamer

HEVC
10 bit
Обложка Кролик Питер / Peter Rabbit (2018) BDRip 1080p [HEVC] 10 bit от OldGamer Год: 2018
Страна: США, Австралия
Студия: Animal Logic
Жанр: Комедия, Приключения, Фэнтези, Семейный
Продолжительность: 01:34:43

Режиссер: Уилл Глак
В ролях: Джеймс Корден, Файсаль Баззи, Донал Глисон, Сиа, Колин Муди, Сэм Нил, Марго Робби, Элизабет Дебики, Дэйзи Ридли, Роуз Бирн

Описание: Фильм рассказывает о противостоянии фермера Томаса МaкГрeгoра и озорного кролика Питера. Испокон веков звери жили рядом с фермой и считали овощи и фрукты с ее грядок своей собственностью, но когда на ферме появился ненавидящий животных Томас, кроликам, ежам и прочим животным вход на ферму стал воспрещен. Естественно это не устроило Питера, и он возглавил восстание против нового хозяина земель.


6.78813834
6.5
29756


Формат: MKV
Видео: 1920x804, 5545 Kbps
Аудио: AC3, 6 ch, 640 Kbps -
Русский, Дублированный (Лицензия)

Субтитры: Русские (форсированные)

Медиаинфо
Формат : Matroska
Версия формата : Version 4
Размер файла : 4,17 Гбайт
Продолжительность : 1 ч. 34 м.
Общий поток : 6310 Кбит/сек
Название фильма : Кролик Питер
Программа кодирования : XviD4PSP 7.0.458 DAILY
Библиотека кодирования : Lavf57.71.100
Примечание : Rip by OldGamer from hevc-club.video
ErrorDetectionType : Per level 1
Attachments : poster.jpg
ACTORS : Джеймс Корден, Файсаль Баззи,
COUNTRY : Австралия
DATE : 2018
DIRECTOR : Уилл Глак
ENCODING_INFO : MATROSKA,WEBM > MKV / H264 > X265 CRF 18.0 Very Slow / AC3 > COPY Безопасное
GENRE : Мультфильм, Фэнтези, Комедия
HD_VIDEO : 1
Язык : und
MEDIA_TYPE : 9
ORIGINAL_TITLE : Peter Rabbit

Видео
Идентификатор : 1
Формат : HEVC
Формат/Информация : High Efficiency Video Coding
Профиль формата : Main 10@L5.1@High
Идентификатор кодека : V_MPEGH/ISO/HEVC
Продолжительность : 1 ч. 34 м.
Битрейт : 5545 Кбит/сек
Ширина : 1920 пикселей
Высота : 804 пикселя
Соотношение сторон : 2,40:1
Режим частоты кадров : Постоянный
Частота кадров : 23,976 (24000/1001) кадра/сек
Цветовое пространство : YUV
Субдискретизация насыщенности : 4:2:0
Битовая глубина : 10 бит
Бит/(Пиксели*Кадры) : 0.150
Размер потока : 3,67 Гбайт (88%)
Библиотека кодирования : x265 2.8+74-fd517ae68f93:[Mac OS X][clang 9.1.0][64 bit] 10bit
Настройки программы : cpuid=1111039 / frame-threads=14 / wpp / no-pmode / no-pme / no-psnr / no-ssim / log-level=3 / input-csp=1 / input-res=1920x804 / interlace=0 / total-frames=0 / level-idc=51 / high-tier=1 / uhd-bd=0 / ref=5 / allow-non-conformance / no-repeat-headers / annexb / no-aud / no-hrd / info / hash=0 / no-temporal-layers / open-gop / min-keyint=23 / keyint=240 / gop-lookahead=0 / bframes=12 / b-adapt=2 / b-pyramid / bframe-bias=0 / rc-lookahead=60 / lookahead-slices=5 / scenecut=40 / radl=0 / no-intra-refresh / ctu=64 / min-cu-size=8 / rect / amp / max-tu-size=32 / tu-inter-depth=4 / tu-intra-depth=4 / limit-tu=0 / rdoq-level=0 / dynamic-rd=0.00 / no-ssim-rd / signhide / no-tskip / nr-intra=0 / nr-inter=0 / no-constrained-intra / no-strong-intra-smoothing / max-merge=5 / limit-refs=2 / no-limit-modes / me=3 / subme=7 / merange=57 / temporal-mvp / weightp / weightb / no-analyze-src-pics / deblock=-3:-3 / no-sao / no-sao-non-deblock / rd=6 / no-early-skip / rskip / no-fast-intra / no-tskip-fast / no-cu-lossless / no-b-intra / no-splitrd-skip / rdpenalty=0 / psy-rd=2.00 / psy-rdoq=0.00 / no-rd-refine / no-lossless / cbqpoffs=0 / crqpoffs=0 / rc=crf / crf=18.0 / qcomp=0.60 / qpstep=4 / stats-write=0 / stats-read=0 / vbv-maxrate=60000 / vbv-bufsize=60000 / vbv-init=0.9 / crf-max=0.0 / crf-min=0.0 / ipratio=1.40 / pbratio=1.30 / aq-mode=2 / aq-strength=1.00 / cutree / zone-count=0 / no-strict-cbr / qg-size=32 / no-rc-grain / qpmax=69 / qpmin=0 / no-const-vbv / sar=1 / overscan=0 / videoformat=5 / range=0 / colorprim=2 / transfer=2 / colormatrix=2 / chromaloc=0 / display-window=0 / max-cll=0,0 / min-luma=0 / max-luma=1023 / log2-max-poc-lsb=8 / vui-timing-info / vui-hrd-info / slices=1 / no-opt-qp-pps / no-opt-ref-list-length-pps / no-multi-pass-opt-rps / scenecut-bias=0.00 / no-opt-cu-delta-qp / aq-motion / no-hdr / no-hdr-opt / no-dhdr10-opt / no-idr-recovery-sei / analysis-reuse-level=5 / scale-factor=0 / refine-intra=0 / refine-inter=0 / refine-mv=0 / no-limit-sao / ctu-info=0 / no-lowpass-dct / refine-mv-type=0 / copy-pic=1 / max-ausize-factor=1.0 / no-dynamic-refine / no-single-sei
Язык : English
Default : Да
Forced : Нет

Аудио
Идентификатор : 2
Формат : AC-3
Формат/Информация : Audio Coding 3
Коммерческое название : Dolby Digital
Идентификатор кодека : A_AC3
Продолжительность : 1 ч. 34 м.
Вид битрейта : Постоянный
Битрейт : 640 Кбит/сек
Каналы : 6 каналов
Channel layout : L R C LFE Ls Rs
Частота : 48,0 КГц
Частота кадров : 31,250 кадров/сек (1536 SPF)
Битовая глубина : 16 бит
Метод сжатия : С потерями
Размер потока : 434 Мбайт (10%)
Заголовок : Surround 5.1
Язык : Russian
Service kind : Complete Main
Default : Да
Forced : Нет

Текст
Идентификатор : 3
Формат : PGS
Идентификатор кодека : S_HDMV/PGS
Идентификатор кодека/Информация : Picture based subtitle format used on BDs/HD-DVDs
Язык : Russian
Default : Да
Forced : Нет

Меню
00:00:00.000 : :Chapter 01
00:04:04.619 : :Chapter 02
00:08:26.297 : :Chapter 03
00:15:11.493 : :Chapter 04
00:21:00.634 : :Chapter 05
00:25:43.500 : :Chapter 06
00:30:50.265 : :Chapter 07
00:38:00.861 : :Chapter 08
00:44:36.965 : :Chapter 09
00:50:07.504 : :Chapter 10
00:56:21.044 : :Chapter 11
01:01:07.246 : :Chapter 12
01:07:02.560 : :Chapter 13
01:10:30.601 : :Chapter 14
01:14:35.137 : :Chapter 15
01:21:51.615 : :Chapter 16
Cкриншот1 Кролик Питер / Peter Rabbit (2018) BDRip 1080p [HEVC] 10 bit от OldGamer
Загружается...
Cкриншот2 Кролик Питер / Peter Rabbit (2018) BDRip 1080p [HEVC] 10 bit от OldGamer
Загружается...
Cкриншот3 Кролик Питер / Peter Rabbit (2018) BDRip 1080p [HEVC] 10 bit от OldGamer
Загружается...
Cкриншот4 Кролик Питер / Peter Rabbit (2018) BDRip 1080p [HEVC] 10 bit от OldGamer
Загружается...
СэмплТоррентМагнет

Кнопки "Позвать в чате", "Спасибо" и "Пожертвование" доступны только зарегистрированным/авторизованным пользователям!

Поблагодарили: 1
brukvalub
25.10.2018  18:38:09
0
202
0
0
4.17 ГБ

Добавление нового комментария

Добавление комментариев доступно только зарегистрированным/авторизованным пользователям.