Обложка Балканский рубеж (2019) BDRip 1080p [HEVC] 10 bit от HANNIBALОбложка Папа-мама гусь / Duck Duck Goose (2018) BDRip 1080p [HEVC] 10 bit от МичманОбложка Излом времени / A Wrinkle in Time (2018) BDRip 1080p [HEVC] 10 bit от M@kSIMusОбложка Капитан Марвел / Captain Marvel (2019) BDRip 1080p [HEVC] 10 bit от Mr. FoxОбложка Багровая мята / Peppermint (2018) BDRip 1080p [HEVC] 10 bit от HANNIBALОбложка Стертая личность / Boy Erased (2018) BDRip 1080p [HEVC] 10 bit от HANNIBALОбложка Хан Соло: Звёздные войны. Истории / Solo: A Star Wars Story (2018) [Локализованная версия] BDRip 1080p [HEVC] 10 bit от CthulhuОбложка Синяя бездна 2 / 47 Meters Down: Uncaged (2019) [iTunes] BDRip 1080p [HEVC] 10 bit от HANNIBALОбложка Профессионал / Сибирь / Siberia (2018) BDRip 1080p [HEVC] 10 bit от HANNIBALОбложка Дикие предки / Early Man (2018) BDRip 1080p [HEVC] 10 bit от M@kSIMus

Авторизация

Смена пароля

captcha

Регистрация

captcha

🔍 Поиск

Мини-чат

(09:56)OldGamer: NoMaD, с какой радости я что-то кому-то должен?
(09:56)NoMaD: OldGamer, не думаю что он в курсе что такое ключи. В принципе как и большинство тех,кто пробует сам кодировать на пресетах программы
(09:57)NoMaD: OldGamer, в плане совета) Не нужно сразу в бучу лезть!!! Не все же тут такие умные как ты.
(11:47)joker63: OldGamer, ✋
(12:13)OldGamer: joker63, ✋
(14:34)OldGamer: NoMaD, то есть ты ещё будешь мне говорить, что делать и куда лезть? 🤔
(19:47)medium: NoMaD, напишите кто нибудь краткий курс по кодированию (с ключами), я бы помог с релизами 4к
(19:47)OldGamer: medium, уже давно всё написано, было бы желание понимать написанное да не лениться экспериментировать, тестировать и сравнивать
(22:51)medium: OldGamer, скинь ссылку плс, где все написано, конечьно я изучу
(09:47)NoMaD: medium, обратите внимание на раздел Справка
(09:53)NoMaD: medium, помощь с релизами 4К нам не нужна,так как пока до конца кодирование с 4К не доведено до ума - цветопередача сильно отличается от кодирования с обычного ремукса и не в лучшую сторону
(11:29)Холодец_3: NoMaD, Ты за всех не говори Кабанчик.
(11:31)Admin: NoMaD, может он хочет в HDR, а там было бы подходящее устройство...
(12:32)NoMaD: Холодец_3, тогда напиши ему в личку и спроси,Холодечик) Раз сам не знаешь)
(12:33)NoMaD: Admin, HDR делать тоже не резонно - многим потом придётся объяснять что делать,чтобы нормально просмотреть видеофайл с нормальными цветами
(15:35)OldGamer: NoMaD, не надо говорить за всех, это нехорошая привычка. Если человек хочет заниматься 4К - это можно только приветствовать.
(16:32)NoMaD: OldGamer, а это так же как у тебя,тоже есть не хорошая привычка - говорить что тебе не нужно,когда тебя несколько человек уже просят сериал сделать.
(16:38)NoMaD: OldGamer, тем более когда сам начал хвалиться,что у тебя есть возможность на нескольких компьютерах делать. Было бы у меня хотя бы два,так я сам бы сделал
  • Admin
  • Blackman91
  • igor302
  • ivan_1965
  • Savager
  • Vitoss6
Онлайн: 6
Отправка сообщений доступно только зарегистрированным/авторизованным пользователям.

Evanescence - Synthesis Live (2018) BDRip 1080p [HEVC] 10 bit от HANNIBAL

HEVC
10 bit
Обложка Evanescence - Synthesis Live (2018) BDRip 1080p [HEVC] 10 bit от HANNIBAL Год: 2018
Страна: США
Студия: Eagle Rock Entertainment
Жанр: Музыка
Продолжительность: 01:23:19

Режиссер: Пи-Ар Браун

Описание: Песни релиза охватывают всю 20-летнюю историю EVANESCENCE, но теперь они звучат по-новому – с полным оркестром и многослойными электронными подложками. "Synthesis" – это душевное и захватывающе грандиозное представление. Невероятный вокальный диапазон Эми Ли и экспрессивная, многослойная музыка группы буквально напрашиваются на оркестровый аккомпанемент, и симфонические аранжировки, созданные усилиями композитора Дэвида Кэмпбелла (David Campbell) и дирижера Сьюзи Сейтер (Susie Seiter) обеспечили выступлению по-настоящему динамичный саунд, похожий на киномузыку. Соответственно реагирует и публика, и концерт становится по-настоящему уникальным шоу, вызывающим бурный отклик. В последнее время EVANESCENCE объехали с программой "Synthesis" весь мир, успешно выступив в Европе, Северной Америке и Австралии. Этим летом группа объединилась со скрипачкой Линдси Стирлинг (Lindsey Stirling) для стадионного тура по Северной Америке, который вошел в верхнюю десятку летних гастролей промоутерской компании Live Nation.

Треклист
01. Overture
02. Never Go Back
03. Lacrymosa
04. The End Of The Dream
05. My Heart Is Broken
06. Lithium
07. Bring Me To Life
08. Unravelling (Interlude)
09. Imaginary
10. Secret Door
11. Hi-Lo
12. Lost In Paradise
13. Your Star
14. My Immortal
15. The In-Between (Piano Solo)
16. Imperfection
17. Speak To Me
18. Good Enough
19. Swimming Home

Формат: MKV
Видео: 1920x870, 4547 Kbps
Аудио: DTS-HD, 6 ch, 2884 Kbps -
Английский, Оригинал

Субтитры: нет

Медиаинфо
General
Unique ID : 177059508770004177686402124489845231311 (0x85346BC5DC563B3C626D5A6E9B4DCECF)
Complete name : E:\Evanescence - Synthesis Live(2018) BDRip 1080p [HEVC] 10bit.mkv
Format : Matroska
Format version : Version 4 / Version 2
File size : 4.33 GiB
Duration : 1 h 23 min
Overall bit rate mode : Variable
Overall bit rate : 7 436 kb/s
Encoded date : UTC 2018-10-21 20:09:28
Writing application : mkvmerge v25.0.0 ('Prog Noir') 64-bit
Writing library : libebml v1.3.6 + libmatroska v1.4.9 / Lavf57.71.100
Cover : Yes
Attachments : cover.jpg
ENCODING_INFO : MPEGTS > MKV 1080p 10-bit / H264 > X265 CRF 17.0 Medium

Video
ID : 1
Format : HEVC
Format/Info : High Efficiency Video Coding
Format profile : Main 10@L4.1@High
Codec ID : V_MPEGH/ISO/HEVC
Duration : 1 h 23 min
Bit rate : 4 547 kb/s
Width : 1 920 pixels
Height : 870 pixels
Display aspect ratio : 2.2:1
Frame rate mode : Constant
Frame rate : 23.976 (24000/1001) FPS
Color space : YUV
Chroma subsampling : 4:2:0
Bit depth : 10 bits
Bits/(Pixel*Frame) : 0.114
Stream size : 2.65 GiB (61%)
Writing library : x265 2.8+74-fd517ae68f93:[Windows][GCC 7.3.0][64 bit] 10bit
Encoding settings : cpuid=1111039 / frame-threads=3 / numa-pools=12 / wpp / no-pmode / no-pme / no-psnr / no-ssim / log-level=3 / input-csp=1 / input-res=1920x870 / interlace=0 / total-frames=0 / level-idc=41 / high-tier=1 / uhd-bd=0 / ref=5 / allow-non-conformance / no-repeat-headers / annexb / no-aud / no-hrd / info / hash=0 / no-temporal-layers / open-gop / min-keyint=24 / keyint=240 / gop-lookahead=0 / bframes=9 / b-adapt=2 / b-pyramid / bframe-bias=0 / rc-lookahead=40 / lookahead-slices=5 / scenecut=40 / radl=0 / no-intra-refresh / ctu=64 / min-cu-size=8 / rect / amp / max-tu-size=32 / tu-inter-depth=1 / tu-intra-depth=1 / limit-tu=0 / rdoq-level=0 / dynamic-rd=0.00 / no-ssim-rd / signhide / no-tskip / nr-intra=0 / nr-inter=0 / no-constrained-intra / no-strong-intra-smoothing / max-merge=2 / limit-refs=3 / no-limit-modes / me=3 / subme=7 / merange=57 / temporal-mvp / weightp / no-weightb / no-analyze-src-pics / deblock=-3:-3 / no-sao / no-sao-non-deblock / rd=3 / no-early-skip / rskip / no-fast-intra / no-tskip-fast / no-cu-lossless / no-b-intra / no-splitrd-skip / rdpenalty=0 / psy-rd=2.00 / psy-rdoq=0.00 / no-rd-refine / no-lossless / cbqpoffs=0 / crqpoffs=0 / rc=crf / crf=17.0 / qcomp=0.60 / qpstep=4 / stats-write=0 / stats-read=0 / vbv-maxrate=50000 / vbv-bufsize=50000 / vbv-init=0.9 / crf-max=0.0 / crf-min=0.0 / ipratio=1.40 / pbratio=1.30 / aq-mode=1 / aq-strength=1.00 / cutree / zone-count=0 / no-strict-cbr / qg-size=32 / no-rc-grain / qpmax=69 / qpmin=0 / no-const-vbv / sar=1 / overscan=0 / videoformat=5 / range=0 / colorprim=1 / transfer=1 / colormatrix=1 / chromaloc=0 / display-window=0 / max-cll=0,0 / min-luma=0 / max-luma=1023 / log2-max-poc-lsb=8 / vui-timing-info / vui-hrd-info / slices=1 / no-opt-qp-pps / no-opt-ref-list-length-pps / no-multi-pass-opt-rps / scenecut-bias=0.05 / no-opt-cu-delta-qp / no-aq-motion / no-hdr / no-hdr-opt / no-dhdr10-opt / no-idr-recovery-sei / analysis-reuse-level=5 / scale-factor=0 / refine-intra=0 / refine-inter=0 / refine-mv=0 / no-limit-sao / ctu-info=0 / no-lowpass-dct / refine-mv-type=0 / copy-pic=1 / max-ausize-factor=1.0 / no-dynamic-refine / no-single-sei
Default : Yes
Forced : No
Color range : Limited
Color primaries : BT.709
Transfer characteristics : BT.709
Matrix coefficients : BT.709

Audio
ID : 2
Format : DTS XLL
Format/Info : Digital Theater Systems
Commercial name : DTS-HD Master Audio
Codec ID : A_DTS
Duration : 1 h 23 min
Bit rate mode : Variable
Bit rate : 2 884 kb/s
Channel(s) : 6 channels
Channel layout : C L R Ls Rs LFE
Sampling rate : 48.0 kHz
Frame rate : 93.750 FPS (512 SPF)
Bit depth : 16 bits
Compression mode : Lossless
Stream size : 1.68 GiB (39%)
Language : English
Default : Yes
Forced : No
Cкриншот1 Evanescence - Synthesis Live (2018) BDRip 1080p [HEVC] 10 bit от HANNIBAL
Загружается...
Cкриншот2 Evanescence - Synthesis Live (2018) BDRip 1080p [HEVC] 10 bit от HANNIBAL
Загружается...
Cкриншот3 Evanescence - Synthesis Live (2018) BDRip 1080p [HEVC] 10 bit от HANNIBAL
Загружается...
Cкриншот4 Evanescence - Synthesis Live (2018) BDRip 1080p [HEVC] 10 bit от HANNIBAL
Загружается...
СэмплТоррентМагнет

Кнопки "Позвать в чате", "Спасибо" и "Пожертвование" доступны только зарегистрированным/авторизованным пользователям!

Поблагодарили: 2
FreeManDio, sdell
24.10.2018  10:00:49
3
603
1
0
4.33 ГБ

Добавление нового комментария

Добавление комментариев доступно только зарегистрированным/авторизованным пользователям.
Аватар Evilshik
  Evilshik  31.10.2018  21:54:07
Разве Эми Ли научилась нормально петь?)
Аватар MIGRANT
  MIGRANT  24.10.2018  18:56:44
Со звуком очень щедро... Жалоб не будет...
Аватар Dimasik_mat
  Dimasik_mat  24.10.2018  17:46:28
Круто.Спасибо.