Регистрация / Смена пароля

💬 Мини-чат

moonson: Alex302, ну, сообственно туда всем нашим врагам и дорога. Жалко только враг Жан-Поля застрял на 16 % и ни туда, и ни сюда 😄
Alex302: moonson, труп вашего врага растащило вороньё)
  • garant3v
  • Leon20052
  • solohin1006
Отправка сообщений доступно только зарегистрированным/авторизованным пользователям.
Онлайн (за 10 мин.): 3

Evanescence - Synthesis Live (2018) BDRip 1080p [HEVC] 10 bit от OldGamer (RG HEVC-CLUB)

HEVC
10 bit
Обложка Evanescence - Synthesis Live (2018) BDRip 1080p [HEVC] 10 bit от OldGamer (RG HEVC-CLUB) Год: 2018
Страна: США
Студия: Eagle Rock Entertainment
Жанр: Музыка
Продолжительность: 01:23:19

Режиссер: Пи-Ар Браун, Крейг Зиогас
Состав:
Evanescence, Эми Ли, Тим Маккорд, Уилл Хант, Трой Маклоухорн, Джен Маджура, Франческо Дискомо, Джош Фриз

Описание: Песни релиза охватывают всю 20-летнюю историю EVANESCENCE, но теперь они звучат по-новому – с полным оркестром и многослойными электронными подложками. "Synthesis" – это душевное и захватывающе грандиозное представление. Сидящая за пианино Эми Ли (Amy Lee) открывает сет одной нотой, из которой выстраивается инструментальная "Overture", а за ней без каких-либо перерывов следует сокрушительная волна в виде "Never Go Back". "Bring Me To Life", с которой многие открыли для себя EVANESCENCE, выведена здесь на новый уровень мощи и эмоций с помощью грохочущего электронного сердцебиения и парящего оркестрового аккомпанемента, а такие песни, как "My Immortal", "Lithium" и "Lost In Paradise", кажутся разрывающими сердце сценами из какого-нибудь красивого фильма, не подверженного влиянию времени.

Треклист
01. Overture
02. Never Go Back
03. Lacrymosa
04. The End Of The Dream
05. My Heart Is Broken
06. Lithium
07. Bring Me To Life
08. Unravelling (Interlude)
09. Imaginary
10. Secret Door
11. Hi-Lo
12. Lost In Paradise
13. Your Star
14. My Immortal
15. The In-Between (Piano Solo)
16. Imperfection
17. Speak To Me
18. Good Enough
19. Swimming Home

Исходник: Blu-Ray Remux 1080p
Видео: 1920x864, 3623 Кбит/сек, HEVC (Main10@L.4.1@High)
Аудио1: DTS-HD MA, 6 ch, 2884 Kbps -
English, Original
Аудио2: PCM, 2 ch, 1536 Kbps -
English, Original
Субтитры: Отсутствуют

Как за пару секунд удалить ненужные аудиодорожки и субтитры (Внимание! После удаления вы не сможете поддержать раздачу)

Лог (x265 info)
x265 [info]: frame I: 503, Avg QP:17.83 kb/s: 13830.85
x265 [info]: frame P: 21709, Avg QP:19.33 kb/s: 8406.59
x265 [info]: frame B: 97634, Avg QP:21.46 kb/s: 2505.55
x265 [info]: Weighted P-Frames: Y:13.1% UV:11.2%
x265 [info]: Weighted B-Frames: Y:11.9% UV:9.0%
x265 [info]: consecutive B-frames: 1.2% 2.0% 4.1% 31.5% 14.1% 28.1% 6.4% 6.5% 2.4% 1.8% 1.0% 0.8%
x265 [info]: encoded 119846 frames in 98550.34s (1.22 fps), 3622.00 kb/s, Avg QP:21.06
Медиаинфо
Формат : Matroska
Версия формата : Version 4
Размер файла : 4,68 Гбайт
Продолжительность : 1 ч. 23 м.
Режим общего битрейта : Переменный
Общий поток : 8 046 Кбит/сек
Название фильма : Evanescence.Synthesis.Live.2018.BDRip-HEVC.1080p
Дата кодирования : UTC 2020-05-14 17:29:51
Программа кодирования : mkvmerge v46.0.0 ('No Deeper Escape') 64-bit
Библиотека кодирования : libebml v1.3.10 + libmatroska v1.5.2
Обложка : Yes
Attachments : cover

Видео
Идентификатор : 1
Формат : HEVC
Формат/Информация : High Efficiency Video Coding
Профиль формата : Main 10@L4.1@High
Идентификатор кодека : V_MPEGH/ISO/HEVC
Продолжительность : 1 ч. 23 м.
Битрейт : 3 623 Кбит/сек
Ширина : 1 920 пикселей
Высота : 864 пикселя
Соотношение сторон : 2,222
Режим частоты кадров : Постоянный
Частота кадров : 23,976 (24000/1001) кадра/сек
Цветовое пространство : YUV
Субдискретизация насыщенности : 4:2:0
Битовая глубина : 10 бит
Бит/(Пиксели*Кадры) : 0.091
Размер потока : 2,11 Гбайт (45%)
Заголовок : Evanescence Synthesis Live / Rip by OldGamer
Библиотека кодирования : x265 3.3+2-gd9a7411cc:[Windows][MSVC 1925][64 bit] 10bit
Настройки программы : cpuid=1111039 / frame-threads=3 / numa-pools=12 / wpp / no-pmode / no-pme / no-psnr / no-ssim / log-level=2 / input-csp=1 / input-res=1920x864 / interlace=0 / total-frames=119846 / level-idc=41 / high-tier=1 / uhd-bd=0 / ref=5 / no-allow-non-conformance / no-repeat-headers / annexb / no-aud / no-hrd / info / hash=0 / no-temporal-layers / open-gop / min-keyint=23 / keyint=240 / gop-lookahead=0 / bframes=11 / b-adapt=2 / b-pyramid / bframe-bias=0 / rc-lookahead=40 / lookahead-slices=0 / scenecut=40 / hist-scenecut=0 / radl=0 / no-splice / no-intra-refresh / ctu=64 / min-cu-size=8 / rect / amp / max-tu-size=32 / tu-inter-depth=4 / tu-intra-depth=4 / limit-tu=1 / rdoq-level=2 / dynamic-rd=0.00 / no-ssim-rd / signhide / no-tskip / nr-intra=0 / nr-inter=0 / no-constrained-intra / no-strong-intra-smoothing / max-merge=5 / limit-refs=3 / no-limit-modes / me=3 / subme=7 / merange=57 / temporal-mvp / no-frame-dup / no-hme / weightp / weightb / no-analyze-src-pics / deblock=-3:-3 / no-sao / no-sao-non-deblock / rd=6 / selective-sao=0 / no-early-skip / rskip / no-fast-intra / no-tskip-fast / no-cu-lossless / b-intra / no-splitrd-skip / rdpenalty=0 / psy-rd=1.80 / psy-rdoq=1.00 / no-rd-refine / no-lossless / cbqpoffs=0 / crqpoffs=0 / rc=crf / crf=20.2 / qcomp=0.60 / qpstep=4 / stats-write=0 / stats-read=0 / vbv-maxrate=50000 / vbv-bufsize=50000 / vbv-init=0.9 / crf-max=0.0 / crf-min=0.0 / ipratio=1.40 / pbratio=1.30 / aq-mode=4 / aq-strength=0.70 / no-cutree / zone-count=0 / no-strict-cbr / qg-size=32 / no-rc-grain / qpmax=69 / qpmin=0 / no-const-vbv / sar=1 / overscan=0 / videoformat=5 / range=0 / colorprim=2 / transfer=2 / colormatrix=2 / chromaloc=0 / display-window=0 / cll=0,0 / min-luma=0 / max-luma=1023 / log2-max-poc-lsb=8 / vui-timing-info / vui-hrd-info / slices=1 / no-opt-qp-pps / no-opt-ref-list-length-pps / no-multi-pass-opt-rps / scenecut-bias=0.00 / hist-threshold=0.01 / no-opt-cu-delta-qp / no-aq-motion / no-hdr10 / no-hdr10-opt / no-dhdr10-opt / no-idr-recovery-sei / analysis-reuse-level=0 / analysis-save-reuse-level=0 / analysis-load-reuse-level=0 / scale-factor=0 / refine-intra=0 / refine-inter=0 / refine-mv=1 / refine-ctu-distortion=0 / no-limit-sao / ctu-info=0 / no-lowpass-dct / refine-analysis-type=0 / copy-pic=1 / max-ausize-factor=1.0 / no-dynamic-refine / no-single-sei / no-hevc-aq / no-svt / no-field / qp-adaptation-range=1.00 / no-scenecut-aware-qpconformance-window-offsets / right=0 / bottom=0
Язык : English
Default : Да
Forced : Нет

Аудио #1
Идентификатор : 2
Формат : DTS XLL
Формат/Информация : Digital Theater Systems
Коммерческое название : DTS-HD Master Audio
Идентификатор кодека : A_DTS
Продолжительность : 1 ч. 23 м.
Вид битрейта : Переменный
Битрейт : 2 884 Кбит/сек
Каналы : 6 каналов
Channel layout : C L R Ls Rs LFE
Частота : 48,0 КГц
Частота кадров : 93,750 кадра/сек (512 SPF)
Битовая глубина : 16 бит
Метод сжатия : Без потерь
Размер потока : 1,68 Гбайт (36%)
Язык : English
Default : Да
Forced : Нет

Аудио #2
Идентификатор : 3
Формат : PCM
Настройки формата : Little / Signed
Идентификатор кодека : A_PCM/INT/LIT
Продолжительность : 1 ч. 23 м.
Вид битрейта : Постоянный
Битрейт : 1 536 Кбит/сек
Каналы : 2 канала
Частота : 48,0 КГц
Частота кадров : 32,000 кадра/сек (1500 SPF)
Битовая глубина : 16 бит
Размер потока : 915 Мбайт (19%)
Язык : English
Default : Нет
Forced : Нет

Меню
00:00:00.000 : en:01. Overture
00:01:28.088 : en:02. Never Go Back
00:06:33.393 : en:03. Lacrymosa
00:10:01.601 : en:04. The End Of The Dream
00:15:17.541 : en:05. My Heart Is Broken
00:20:08.498 : en:06. Lithium
00:24:23.587 : en:07. Bring Me To Life
00:28:40.719 : en:08. Unravelling (Interlude)
00:30:20.068 : en:09. Imaginary
00:34:37.075 : en:10. Secret Door
00:38:53.331 : en:11. Hi-Lo
00:43:57.384 : en:12. Lost In Paradise
00:48:40.918 : en:13. Your Star
00:53:47.432 : en:14. My Immortal
00:58:28.505 : en:15. The In-Between (Piano Solo)
01:00:23.620 : en:16. Imperfection
01:05:16.579 : en:17. Speak To Me
01:11:49.305 : en:18. Good Enough
01:17:27.768 : en:19. Swimming Home
01:23:19.160 : en:20. End
Cкриншот1 Evanescence - Synthesis Live (2018) BDRip 1080p [HEVC] 10 bit от OldGamer (RG HEVC-CLUB)
Загружается...
Cкриншот2 Evanescence - Synthesis Live (2018) BDRip 1080p [HEVC] 10 bit от OldGamer (RG HEVC-CLUB)
Загружается...
Cкриншот3 Evanescence - Synthesis Live (2018) BDRip 1080p [HEVC] 10 bit от OldGamer (RG HEVC-CLUB)
Загружается...
Cкриншот4 Evanescence - Synthesis Live (2018) BDRip 1080p [HEVC] 10 bit от OldGamer (RG HEVC-CLUB)
Загружается...
Сэмпл Торрент🧲 Магнет

Кнопки "Позвать в чате" и "Спасибо" доступны только зарегистрированным/авторизованным пользователям!

Раздача обновлена!
Перекодировано. Добавлена оригинальная дорожка в другом формате.

Файлы: 1
  • Evanescence.Synthesis.Live.2018.BDRip-HEVC.1080p.mkv   4.68 ГБ
Поблагодарили: 17
ADVOKAT69, anderb, bad999, cdmitry, FreeManDio, han-nik, inet7052, makss333, Medmedmed, NoMaD, Nuclear70, SAVOYAR, sdell, Spartanec1308, stas67, Strelych, Tony
OldGamer
160804.68 ГБ

Добавление нового комментария

Добавление комментариев доступно только зарегистрированным/авторизованным пользователям.
Аватар ADVOKAT69
  ADVOKAT69  
Спасибо за хорошую музыку в качестве!