Регистрация / Смена пароля

💬 Мини-чат

moonson: Alex302, ну, сообственно туда всем нашим врагам и дорога. Жалко только враг Жан-Поля застрял на 16 % и ни туда, и ни сюда 😄
Alex302: moonson, труп вашего врага растащило вороньё)
  • ancestor87
  • aquarius
  • garant3v
  • InSpector
Отправка сообщений доступно только зарегистрированным/авторизованным пользователям.
Онлайн (за 10 мин.): 4

47 ронинов / 47 Ronin (2013) BDRip 1080p [HEVC] 10 bit от HANNIBAL

HEVC
10 bit
Обложка 47 ронинов / 47 Ronin (2013) BDRip 1080p [HEVC] 10 bit от HANNIBAL Год: 2013
Страна: США
Студия: H2F Entertainment, Mid Atlantic Films, Stuber Productions
Жанр: Боевик, Приключения, Фэнтези
Продолжительность: 01:58:36

Режиссер: Карл Ринш
В ролях: Киану Ривз, Ринко Кикучи, Кэри-Хироюки Тагава, Хироюки Санада, Таданобу Асано, Того Игава, Йорик ван Вагенинген, Ко Шибасаки, Рик Жене, Харука Абе

Описание: Таинственный странник, преданный всеми, проданный в рабство, избранный судьбой вершить месть, станет одним из 47 воинов, бросивших вызов смерти. Явившись из другого мира, он восстанет против темных сил, чтобы защитить свою запретную любовь.

КиноПоиск
6.739 97773
IMDb
6.3
142168


Видео: 1920x800, 7856 Kbps
Аудио1: AC3, 6 ch, 640 Kbps -
Русский, Дублированный (Лицензия)
Аудио2: AC3, 6 ch, 640 Kbps -
Английский, Оригинал
Субтитры: Русские (форсированные, полные), английские

Как за пару секунд удалить ненужные аудиодорожки и субтитры (Внимание! После удаления вы не сможете поддержать раздачу)

Медиаинфо
General
Unique ID : 143961483668799342153800518472136540703 (0x6C4DF9252ED0213624090F0D335A421F)
Complete name : D:\47 Ronin (2013) BDRip-HEVC 1080p 10 bit.mkv
Format : Matroska
Format version : Version 4
File size : 7.57 GiB
Duration : 1 h 58 min
Overall bit rate : 9 139 kb/s
Movie name : 47 ронинов
Encoded date : UTC 2020-05-21 16:35:50
Writing application : mkvmerge v25.0.0 ('Prog Noir') 64-bit
Writing library : libebml v1.3.6 + libmatroska v1.4.9 / Lavf57.71.100
Cover : Yes
Attachments : poster.jpg / Cover.png
ACTORS : Киану Ривз, Хироюки Санада,
COUNTRY : США
DATE : 2013
DIRECTOR : Карл Ринш
ENCODING_INFO : MATROSKA,WEBM > MKV Пользовательский / H264 > X265 CRF 19.0 Medium
GENRE : фэнтези, боевик, драма
HD_VIDEO : 1
Language : und
MEDIA_TYPE : 9
ORIGINAL_TITLE : 47 Ronin

Video
ID : 1
Format : HEVC
Format/Info : High Efficiency Video Coding
Format profile : Main 10@L4.1@High
Codec ID : V_MPEGH/ISO/HEVC
Duration : 1 h 58 min
Bit rate : 7 856 kb/s
Width : 1 920 pixels
Height : 800 pixels
Display aspect ratio : 2.40:1
Frame rate mode : Constant
Frame rate : 23.976 (24000/1001) FPS
Color space : YUV
Chroma subsampling : 4:2:0
Bit depth : 10 bits
Bits/(Pixel*Frame) : 0.213
Stream size : 6.51 GiB (86%)
Writing library : x265 3.1+7-147fb92c5ed5:[Windows][clang 8.0.0][64 bit] 10bit
Encoding settings : cpuid=1111039 / frame-threads=13 / wpp / no-pmode / no-pme / no-psnr / no-ssim / log-level=3 / input-csp=1 / input-res=1920x800 / interlace=0 / total-frames=0 / level-idc=41 / high-tier=1 / uhd-bd=0 / ref=5 / allow-non-conformance / no-repeat-headers / annexb / no-aud / no-hrd / info / hash=0 / no-temporal-layers / open-gop / min-keyint=23 / keyint=240 / gop-lookahead=0 / bframes=8 / b-adapt=2 / b-pyramid / bframe-bias=0 / rc-lookahead=60 / lookahead-slices=4 / scenecut=60 / radl=0 / no-splice / no-intra-refresh / ctu=64 / min-cu-size=8 / rect / amp / max-tu-size=32 / tu-inter-depth=4 / tu-intra-depth=4 / limit-tu=4 / rdoq-level=2 / dynamic-rd=0.00 / no-ssim-rd / signhide / no-tskip / nr-intra=0 / nr-inter=0 / no-constrained-intra / no-strong-intra-smoothing / max-merge=5 / limit-refs=1 / limit-modes / me=3 / subme=7 / merange=57 / temporal-mvp / no-hme / weightp / weightb / no-analyze-src-pics / deblock=-3:-3 / no-sao / no-sao-non-deblock / rd=6 / no-early-skip / no-rskip / no-fast-intra / no-tskip-fast / no-cu-lossless / b-intra / no-splitrd-skip / rdpenalty=0 / psy-rd=2.00 / psy-rdoq=1.00 / no-rd-refine / no-lossless / cbqpoffs=0 / crqpoffs=0 / rc=crf / crf=19.0 / qcomp=0.70 / qpstep=4 / stats-write=0 / stats-read=0 / vbv-maxrate=50000 / vbv-bufsize=50000 / vbv-init=0.9 / crf-max=30.0 / crf-min=0.0 / ipratio=1.40 / pbratio=1.30 / aq-mode=2 / aq-strength=1.00 / no-cutree / zone-count=0 / no-strict-cbr / qg-size=32 / no-rc-grain / qpmax=69 / qpmin=0 / no-const-vbv / sar=1 / overscan=0 / videoformat=5 / range=0 / colorprim=1 / transfer=1 / colormatrix=1 / chromaloc=0 / display-window=0cll=0,0 / min-luma=0 / max-luma=1023 / log2-max-poc-lsb=8 / vui-timing-info / vui-hrd-info / slices=1 / no-opt-qp-pps / no-opt-ref-list-length-pps / no-multi-pass-opt-rps / scenecut-bias=0.05 / no-opt-cu-delta-qp / no-aq-motion / no-hdr / no-hdr-opt / no-dhdr10-opt / no-idr-recovery-sei / analysis-reuse-level=5 / scale-factor=0 / refine-intra=0 / refine-inter=0 / refine-mv=0 / refine-ctu-distortion=0 / no-limit-sao / ctu-info=0 / no-lowpass-dct / refine-analysis-type=267 / copy-pic=1 / max-ausize-factor=1.0 / no-dynamic-refine / no-single-sei / no-hevc-aq / no-svt / no-field / qp-adaptation-range=1.00
Default : Yes
Forced : No
Color range : Limited
Color primaries : BT.709
Transfer characteristics : BT.709
Matrix coefficients : BT.709

Audio #1
ID : 2
Format : AC-3
Format/Info : Audio Coding 3
Commercial name : Dolby Digital
Codec ID : A_AC3
Duration : 1 h 58 min
Bit rate mode : Constant
Bit rate : 640 kb/s
Channel(s) : 6 channels
Channel layout : L R C LFE Ls Rs
Sampling rate : 48.0 kHz
Frame rate : 31.250 FPS (1536 SPF)
Compression mode : Lossy
Stream size : 543 MiB (7%)
Title : Дубляж
Language : Russian
Service kind : Complete Main
Default : Yes
Forced : No

Audio #2
ID : 3
Format : AC-3
Format/Info : Audio Coding 3
Commercial name : Dolby Digital
Codec ID : A_AC3
Duration : 1 h 58 min
Bit rate mode : Constant
Bit rate : 640 kb/s
Channel(s) : 6 channels
Channel layout : L R C LFE Ls Rs
Sampling rate : 48.0 kHz
Frame rate : 31.250 FPS (1536 SPF)
Compression mode : Lossy
Stream size : 543 MiB (7%)
Title : Оригинал
Language : English
Service kind : Complete Main
Default : No
Forced : No

Text #1
ID : 4
Format : UTF-8
Codec ID : S_TEXT/UTF8
Codec ID/Info : UTF-8 Plain Text
Duration : 1 h 47 min
Bit rate : 0 b/s
Count of elements : 4
Stream size : 290 Bytes (0%)
Title : Forced
Language : Russian
Default : Yes
Forced : Yes

Text #2
ID : 5
Format : UTF-8
Codec ID : S_TEXT/UTF8
Codec ID/Info : UTF-8 Plain Text
Duration : 1 h 47 min
Bit rate : 42 b/s
Count of elements : 669
Stream size : 33.4 KiB (0%)
Title : Full
Language : Russian
Default : No
Forced : No

Text #3
ID : 6
Format : UTF-8
Codec ID : S_TEXT/UTF8
Codec ID/Info : UTF-8 Plain Text
Duration : 1 h 47 min
Bit rate : 24 b/s
Count of elements : 740
Stream size : 19.4 KiB (0%)
Title : Full
Language : English
Default : No
Forced : No

Menu
00:00:00.000 : :00:00:00.000
00:04:27.559 : :00:04:27.559
00:11:12.088 : :00:11:12.088
00:16:27.820 : :00:16:27.820
00:20:11.836 : :00:20:11.836
00:26:52.319 : :00:26:52.319
00:31:02.944 : :00:31:02.944
00:36:10.627 : :00:36:10.627
00:43:36.614 : :00:43:36.614
00:50:14.511 : :00:50:14.511
00:54:59.421 : :00:54:59.421
00:59:54.049 : :00:59:54.049
01:09:57.734 : :01:09:57.735
01:13:59.018 : :01:13:59.018
01:19:12.247 : :01:19:12.247
01:24:17.386 : :01:24:17.386
01:33:00.825 : :01:33:00.825
01:38:55.555 : :01:38:55.555
01:44:41.609 : :01:44:41.609
01:48:38.303 : :01:48:38.303
Cкриншот1 47 ронинов / 47 Ronin (2013) BDRip 1080p [HEVC] 10 bit от HANNIBAL
Загружается...
Cкриншот2 47 ронинов / 47 Ronin (2013) BDRip 1080p [HEVC] 10 bit от HANNIBAL
Загружается...
Cкриншот3 47 ронинов / 47 Ronin (2013) BDRip 1080p [HEVC] 10 bit от HANNIBAL
Загружается...
Cкриншот4 47 ронинов / 47 Ronin (2013) BDRip 1080p [HEVC] 10 bit от HANNIBAL
Загружается...
Сэмпл Торрент🧲 Магнет

Кнопки "Позвать в чате" и "Спасибо" доступны только зарегистрированным/авторизованным пользователям!

Раздача обновлена!
Фильм перекодирован, а также добавлены субтитры.

Файлы: 1
  • 47 Ronin (2013) BDRip-HEVC 1080p 10 bit.mkv   7.57 ГБ
Поблагодарили: 8
and50, aquarius, Brooklyn, brukvalub, Kiran, makss333, Prince, Херсонец
Admin
01661917.57 ГБ

Добавление нового комментария

Добавление комментариев доступно только зарегистрированным/авторизованным пользователям.