Обложка Аладдин / Aladdin (2019) BDRip 1080p [HEVC] 10 bit от Mr. FoxОбложка Дамбо / Dumbo (2019) BDRip 1080p [HEVC] 10 bit от Mr. FoxОбложка Человек-паук: Через вселенные / Spider-Man: Into the Spider-Verse (2018) [Локализованная версия] BDRip 1080p [HEVC] 10 bit от AlexTwittОбложка Хэллоуин / Halloween (2018) BDRip 1080p [HEVC] 10 bit от HANNIBALОбложка Игра престолов / Game of Thrones (2019) [8 сезон] BDRip 1080p [HEVC] 10 bit от OldGamer (RG HEVC-CLUB)Обложка Люди Икс: Тёмный Феникс / Dark Phoenix (2019) BDRip 1080p [HEVC] 10 bit от HANNIBALОбложка Тройная угроза / Triple Threat (2019) BDRip 1080p [HEVC] 10 bit от HANNIBALОбложка Дальше по коридору / Down a Dark Hall (2018) BDRip 1080p [HEVC] 10 bit от HANNIBALОбложка Evanescence - Synthesis Live (2018) BDRip 1080p [HEVC] 10 bit от HANNIBALОбложка Видок: Охотник на призраков / L'Empereur de Paris (2018) BDRip 1080p [HEVC] 10 bit от HANNIBAL

Авторизация

Смена пароля

captcha

Регистрация

captcha

🔍 Поиск

Мини-чат

(11:47)joker63: OldGamer, ✋
(12:13)OldGamer: joker63, ✋
(14:34)OldGamer: NoMaD, то есть ты ещё будешь мне говорить, что делать и куда лезть? 🤔
(19:47)medium: NoMaD, напишите кто нибудь краткий курс по кодированию (с ключами), я бы помог с релизами 4к
(19:47)OldGamer: medium, уже давно всё написано, было бы желание понимать написанное да не лениться экспериментировать, тестировать и сравнивать
(22:51)medium: OldGamer, скинь ссылку плс, где все написано, конечьно я изучу
(09:47)NoMaD: medium, обратите внимание на раздел Справка
(09:53)NoMaD: medium, помощь с релизами 4К нам не нужна,так как пока до конца кодирование с 4К не доведено до ума - цветопередача сильно отличается от кодирования с обычного ремукса и не в лучшую сторону
(11:29)Холодец_3: NoMaD, Ты за всех не говори Кабанчик.
(11:31)Admin: NoMaD, может он хочет в HDR, а там было бы подходящее устройство...
(12:32)NoMaD: Холодец_3, тогда напиши ему в личку и спроси,Холодечик) Раз сам не знаешь)
(12:33)NoMaD: Admin, HDR делать тоже не резонно - многим потом придётся объяснять что делать,чтобы нормально просмотреть видеофайл с нормальными цветами
(15:35)OldGamer: NoMaD, не надо говорить за всех, это нехорошая привычка. Если человек хочет заниматься 4К - это можно только приветствовать.
(16:32)NoMaD: OldGamer, а это так же как у тебя,тоже есть не хорошая привычка - говорить что тебе не нужно,когда тебя несколько человек уже просят сериал сделать.
(16:38)NoMaD: OldGamer, тем более когда сам начал хвалиться,что у тебя есть возможность на нескольких компьютерах делать. Было бы у меня хотя бы два,так я сам бы сделал
(17:27)Admin: NoMaD, заплати максику, он тебе сделает
(17:33)NoMaD: Admin, штамповки Максика мне не нужны,до сих пор себя за это ругаю
  • Admin
  • Spartanec1308
  • andreopulus
  • Falco
  • Jonny3387
  • MosyakovDmitry
  • NoMaD
  • Арман
  • Макс2013
Онлайн: 9
Отправка сообщений доступно только зарегистрированным/авторизованным пользователям.

Дэдпул 2 / Deadpool 2 (2018) [Театральная версия] BDRip 1080p [HEVC] 10 bit от M@kSIMus

HEVC
10 bit
Обложка Дэдпул 2 / Deadpool 2 (2018) [Театральная версия] BDRip 1080p [HEVC] 10 bit от M@kSIMus Год: 2018
Страна: США
Студия: 20th Century Fox Film Corporation, Donners' Company, Kinberg Genre, Marvel Entertainment
Жанр: Фантастика, Боевик, Комедия, Приключения
Продолжительность: 01:59:20

Режиссер: Дэвид Литч
В ролях: Джош Бролин, Райан Рейнольдс, Морена Баккарин, Зази Битц, Брианна Хилдебранд, Брэд Питт, Билл Скарсгард, ТиДжей Миллер, Терри Крюс, Роб Делани

Описание: Единственный и неповторимый болтливый наемник — вернулся! Ещё более масштабный, ещё более разрушительный и даже ещё более голозадый, чем прежде! Когда в его жизнь врывается суперсолдат с убийственной миссией, Дэдпул вынужден задуматься о дружбе, семье и о том, что на самом деле значит быть героем, попутно надирая 50 оттенков задниц. Потому что иногда чтобы делать хорошие вещи, нужно использовать грязные приёмчики.


7.355128173
7.7
426751


Формат: MKV
Видео: 1920x804, 7572 Kbps
Аудио1: AC3, 6 ch, 448 Kbps -
Русский, Дублированный (Лицензия)

Аудио2: AC3, 6 ch, 448 Kbps - Оригинал
Субтитры: Русские (полные)

Как за пару секунд удалить ненужные аудиодорожки и субтитры (Внимание! После удаления вы не сможете поддержать раздачу)

Медиаинфо
Общее
Уникальный идентификатор : 317651570080036051747843333040354366031 (0xEEF97791E43338305483F4D70858124F)
Полное имя : E:\Фильмы\Дэдпул 2 (2018) BDRip 1080p [HEVC] 10 bit.mkv
Формат : Matroska
Версия формата : Version 4 / Version 2
Размер файла : 7,06 Гбайт
Продолжительность : 1 ч. 59 м.
Общий поток : 8471 Кбит/сек
Дата кодирования : UTC 2018-08-20 02:53:32
Программа кодирования : mkvmerge v19.0.0 ('Brave Captain') 64-bit
Библиотека кодирования : libebml v1.3.5 + libmatroska v1.4.8
Обложка : Yes
Attachments : cover.jpg

Видео
Идентификатор : 1
Формат : HEVC
Формат/Информация : High Efficiency Video Coding
Профиль формата : Main 10@L5.1@High
Идентификатор кодека : V_MPEGH/ISO/HEVC
Продолжительность : 1 ч. 59 м.
Битрейт : 7572 Кбит/сек
Ширина : 1920 пикселей
Высота : 804 пикселя
Соотношение сторон : 2,40:1
Режим частоты кадров : Постоянный
Частота кадров : 23,976 (24000/1001) кадра/сек
Цветовое пространство : YUV
Субдискретизация насыщенности : 4:2:0
Битовая глубина : 10 бит
Бит/(Пиксели*Кадры) : 0.205
Размер потока : 6,31 Гбайт (89%)
Библиотека кодирования : x265 2.8+19-bcdc610cf5f0:[Windows][GCC 7.3.0][64 bit] 10bit
Настройки программы : cpuid=1049583 / frame-threads=5 / numa-pools=4 / wpp / no-pmode / no-pme / no-psnr / no-ssim / log-level=3 / input-csp=1 / input-res=1920x804 / interlace=0 / total-frames=0 / level-idc=51 / high-tier=1 / uhd-bd=0 / ref=5 / allow-non-conformance / no-repeat-headers / annexb / no-aud / no-hrd / info / hash=0 / no-temporal-layers / open-gop / min-keyint=24 / keyint=240 / gop-lookahead=0 / bframes=8 / b-adapt=2 / b-pyramid / bframe-bias=0 / rc-lookahead=60 / lookahead-slices=5 / scenecut=40 / radl=0 / no-intra-refresh / ctu=64 / min-cu-size=8 / no-rect / no-amp / max-tu-size=32 / tu-inter-depth=1 / tu-intra-depth=1 / limit-tu=0 / rdoq-level=0 / dynamic-rd=0.00 / no-ssim-rd / signhide / no-tskip / nr-intra=0 / nr-inter=0 / no-constrained-intra / strong-intra-smoothing / max-merge=2 / limit-refs=3 / no-limit-modes / me=3 / subme=7 / merange=57 / temporal-mvp / weightp / no-weightb / no-analyze-src-pics / deblock=-3:-3 / no-sao / no-sao-non-deblock / rd=3 / no-early-skip / rskip / no-fast-intra / no-tskip-fast / no-cu-lossless / no-b-intra / no-splitrd-skip / rdpenalty=0 / psy-rd=2.00 / psy-rdoq=0.00 / no-rd-refine / no-lossless / cbqpoffs=0 / crqpoffs=0 / rc=crf / crf=18.0 / qcomp=0.75 / qpstep=4 / stats-write=0 / stats-read=0 / vbv-maxrate=160000 / vbv-bufsize=160000 / vbv-init=0.9 / crf-max=0.0 / crf-min=0.0 / ipratio=1.40 / pbratio=1.30 / aq-mode=1 / aq-strength=1.00 / cutree / zone-count=0 / no-strict-cbr / qg-size=32 / no-rc-grain / qpmax=69 / qpmin=0 / no-const-vbv / sar=1 / overscan=0 / videoformat=5 / range=0 / colorprim=1 / transfer=1 / colormatrix=1 / chromaloc=0 / display-window=0 / max-cll=0,0 / min-luma=0 / max-luma=1023 / log2-max-poc-lsb=8 / vui-timing-info / vui-hrd-info / slices=1 / no-opt-qp-pps / no-opt-ref-list-length-pps / no-multi-pass-opt-rps / scenecut-bias=0.05 / no-opt-cu-delta-qp / no-aq-motion / no-hdr / no-hdr-opt / no-dhdr10-opt / no-idr-recovery-sei / analysis-reuse-level=5 / scale-factor=0 / refine-intra=0 / refine-inter=0 / refine-mv=0 / no-limit-sao / ctu-info=0 / no-lowpass-dct / refine-mv-type=0 / copy-pic=1 / max-ausize-factor=1.0 / no-dynamic-refine / no-single-sei
Язык : English
Default : Да
Forced : Нет
Цветовой диапазон : Limited
Основные цвета : BT.709
Характеристики трансфера : BT.709
Коэффициенты матрицы : BT.709

Аудио #1
Идентификатор : 2
Формат : AC-3
Формат/Информация : Audio Coding 3
Идентификатор кодека : A_AC3
Продолжительность : 1 ч. 59 м.
Вид битрейта : Постоянный
Битрейт : 448 Кбит/сек
Каналы : 6 каналов
Расположение каналов : Front: L C R, Side: L R, LFE
Частота : 48,0 КГц
Частота кадров : 31,250 кадров/сек (1536 SPF)
Битовая глубина : 16 бит
Метод сжатия : С потерями
Размер потока : 382 Мбайт (5%)
Заголовок : Дубляж
Язык : Russian
ServiceKind/String : Complete Main
Default : Да
Forced : Нет

Аудио #2
Идентификатор : 3
Формат : AC-3
Формат/Информация : Audio Coding 3
Идентификатор кодека : A_AC3
Продолжительность : 1 ч. 59 м.
Вид битрейта : Постоянный
Битрейт : 448 Кбит/сек
Каналы : 6 каналов
Расположение каналов : Front: L C R, Side: L R, LFE
Частота : 48,0 КГц
Частота кадров : 31,250 кадров/сек (1536 SPF)
Битовая глубина : 16 бит
Метод сжатия : С потерями
Размер потока : 382 Мбайт (5%)
Заголовок : Оригинал
Язык : English
ServiceKind/String : Complete Main
Default : Нет
Forced : Нет

Текст
Идентификатор : 4
Формат : UTF-8
Идентификатор кодека : S_TEXT/UTF8
Идентификатор кодека/Информация : UTF-8 Plain Text
Продолжительность : 1 ч. 51 м.
Битрейт : 109 бит/сек
ElementCount : 1933
Размер потока : 89,4 Кбайт (0%)
Заголовок : Full
Язык : Russian
Default : Нет
Forced : Нет
Cкриншот1 Дэдпул 2 / Deadpool 2 (2018) [Театральная версия] BDRip 1080p [HEVC] 10 bit от M@kSIMus
Загружается...
Cкриншот2 Дэдпул 2 / Deadpool 2 (2018) [Театральная версия] BDRip 1080p [HEVC] 10 bit от M@kSIMus
Загружается...
Cкриншот3 Дэдпул 2 / Deadpool 2 (2018) [Театральная версия] BDRip 1080p [HEVC] 10 bit от M@kSIMus
Загружается...
Cкриншот4 Дэдпул 2 / Deadpool 2 (2018) [Театральная версия] BDRip 1080p [HEVC] 10 bit от M@kSIMus
Загружается...
СэмплТоррентМагнет

Кнопки "Позвать в чате", "Спасибо" и "Пожертвование" доступны только зарегистрированным/авторизованным пользователям!

Раздача обновлена!
Замена на Лицензию

Поблагодарили: 1
Sharaman86
20.08.2018  06:02:24
9
1475
0
0
7.06 ГБ

Добавление нового комментария

Добавление комментариев доступно только зарегистрированным/авторизованным пользователям.
Аватар XuMuK
  XuMuK  16.11.2018  21:37:23
MakSIMus писал(а):
А вот за это спасибо. И так стараюсь как могу. Я уж подумал ты опять с наездами. Извини.
Смешно))
Максимке сказали, что у него детализация никакая, а он спасибо говорит
Аватар MakSIMus
  MakSIMus  30.08.2018  22:07:11
Студень писал(а):
меня всем устроило, это намёк, чтоб учился детализацию сохранять
А вот за это спасибо. И так стараюсь как могу. Я уж подумал ты опять с наездами. Извини.
Аватар Студень
  Студень  30.08.2018  22:05:07
MakSIMus писал(а):
Почему же нет. Очень даже есть. Чем сравнение скриншотов не устроило ответь?
меня всем устроило, это намёк, чтоб учился детализацию сохранять
Аватар MakSIMus
  MakSIMus  30.08.2018  22:03:23
Студень писал(а):
скажи ещё что в исходнике его нет
Почему же нет. Очень даже есть. Чем сравнение скриншотов не устроило ответь?
Аватар Студень
  Студень  30.08.2018  22:00:58
MakSIMus писал(а):
И что дальше? У меня шума по меньше будет. У Химика он вообще не понятно откуда берется.
скажи ещё что в исходнике его нет
Аватар MakSIMus
  MakSIMus  30.08.2018  21:48:55
Студень писал(а):
http://screenshotcomparison.com/comparison/118885/picture:0
И что дальше? У меня шума по меньше будет. У Химика он вообще не понятно откуда берется.
Аватар Студень
  Студень  30.08.2018  21:27:02
http://screenshotcomparison.com/comparison/118885/picture:0
Аватар Andrey72
  Andrey72  22.08.2018  19:00:15
Спасибо!
Аватар HANNIBAL
  HANNIBAL  20.08.2018  08:03:30
Раздача обновлена! Замена на Лицензию