Регистрация / Смена пароля

💬 Мини-чат

moonson: Alex302, ну, сообственно туда всем нашим врагам и дорога. Жалко только враг Жан-Поля застрял на 16 % и ни туда, и ни сюда 😄
Alex302: moonson, труп вашего врага растащило вороньё)
  • aquarius
  • garant3v
  • igor302
  • iha777
  • Korbis
  • podvoh7
  • Voodooo83
Отправка сообщений доступно только зарегистрированным/авторизованным пользователям.
Онлайн (за 10 мин.): 7

Плохие парни навсегд / Bad Boys for Life (2020) BDRip 1080p [HEVC] 10 bit от HANNIBAL

HEVC
10 bit
Обложка Плохие парни навсегд / Bad Boys for Life (2020) BDRip 1080p [HEVC] 10 bit от HANNIBAL Год: 2020
Страна: США, Мексика
Студия: Columbia Pictures, 2.0 Entertainment, Columbia Pictures Mexico
Жанр: Боевик, Триллер, Комедия, Криминал
Продолжительность: 02:03:58

Режиссер: Адиль Эль Арби, Билал Фалла
В ролях: Уилл Смит, Мартин Лоуренс, Ванесса Энн Хадженс, Александр Людвиг, Чарльз Мелтон, Паола Нуньес, Кейт дель Кастильо, Ники Джем, Джо Пантольяно, Джейкоб Скипио

Описание: Детективы Майк Лоури и Маркус Бёрнетт снова в деле! Правда, их отстраняют от всех операций, но разве отчаянных друзей когда-нибудь что-либо останавливало? Ведь на этот раз на Майка открывает охоту некто из его прошлой жизни. Так что парням придется отжечь по полной!

КиноПоиск
6.614 61010
IMDb
6.7
94817


Видео: 1920x802, 7308 Kbps
Аудио1: AC3, 6 ch, 448 Kbps -
Русский, Дублированный (Лицензия)
Аудио2: AC3, 2 ch, 192 Kbps -
Украинский, Дублированный (iTunes)
Аудио3: AC3, 6 ch, 448 Kbps -
Английский, Оригинал
Субтитры: Русские (форсированные, полные), украинские (форсированные, полные), английские

Как за пару секунд удалить ненужные аудиодорожки и субтитры (Внимание! После удаления вы не сможете поддержать раздачу)

Медиаинфо
General
Unique ID : 29772194141193314225391336765353000544 (0x1665EA805487F2870951027ECE8E7E60)
Complete name : H:\[HEVC]\Bad Boys for Life (2020) BDRip-HEVC 1080p.mkv
Format : Matroska
Format version : Version 4
File size : 7.27 GiB
Duration : 2 h 3 min
Overall bit rate : 8 398 kb/s
Movie name : Плохие парни навсегда
Encoded date : UTC 2020-05-18 19:54:35
Writing application : mkvmerge v25.0.0 ('Prog Noir') 64-bit
Writing library : libebml v1.3.6 + libmatroska v1.4.9 / Lavf57.71.100
Attachments : poster.jpg
ACTORS : Уилл Смит, Мартин Лоуренс,
COUNTRY : США
DATE : 2020
DIRECTOR : Адиль Эль Арби
ENCODING_INFO : MATROSKA,WEBM > MKV Пользовательский / H264 > X265 CRF 19.5 Medium
GENRE : боевик, триллер, комедия
HD_VIDEO : 1
Language : und
MEDIA_TYPE : 9
ORIGINAL_TITLE : Bad Boys for Life

Video
ID : 1
Format : HEVC
Format/Info : High Efficiency Video Coding
Format profile : Main 10@L4.1@High
Codec ID : V_MPEGH/ISO/HEVC
Duration : 2 h 3 min
Bit rate : 7 308 kb/s
Width : 1 920 pixels
Height : 802 pixels
Display aspect ratio : 2.40:1
Frame rate mode : Constant
Frame rate : 23.976 (24000/1001) FPS
Color space : YUV
Chroma subsampling : 4:2:0
Bit depth : 10 bits
Bits/(Pixel*Frame) : 0.198
Stream size : 6.33 GiB (87%)
Writing library : x265 3.1+7-147fb92c5ed5:[Windows][clang 8.0.0][64 bit] 10bit
Encoding settings : cpuid=1111039 / frame-threads=13 / wpp / no-pmode / no-pme / no-psnr / no-ssim / log-level=3 / input-csp=1 / input-res=1920x802 / interlace=0 / total-frames=0 / level-idc=41 / high-tier=1 / uhd-bd=0 / ref=5 / allow-non-conformance / no-repeat-headers / annexb / no-aud / no-hrd / info / hash=0 / no-temporal-layers / open-gop / min-keyint=23 / keyint=240 / gop-lookahead=0 / bframes=8 / b-adapt=2 / b-pyramid / bframe-bias=0 / rc-lookahead=60 / lookahead-slices=4 / scenecut=60 / radl=0 / no-splice / no-intra-refresh / ctu=64 / min-cu-size=8 / rect / amp / max-tu-size=32 / tu-inter-depth=4 / tu-intra-depth=4 / limit-tu=4 / rdoq-level=2 / dynamic-rd=0.00 / no-ssim-rd / signhide / no-tskip / nr-intra=0 / nr-inter=0 / no-constrained-intra / no-strong-intra-smoothing / max-merge=5 / limit-refs=1 / limit-modes / me=3 / subme=7 / merange=57 / temporal-mvp / no-hme / weightp / weightb / no-analyze-src-pics / deblock=-3:-3 / no-sao / no-sao-non-deblock / rd=6 / no-early-skip / no-rskip / no-fast-intra / no-tskip-fast / no-cu-lossless / b-intra / no-splitrd-skip / rdpenalty=0 / psy-rd=2.00 / psy-rdoq=1.00 / no-rd-refine / no-lossless / cbqpoffs=0 / crqpoffs=0 / rc=crf / crf=19.5 / qcomp=0.70 / qpstep=4 / stats-write=0 / stats-read=0 / vbv-maxrate=50000 / vbv-bufsize=50000 / vbv-init=0.9 / crf-max=30.0 / crf-min=0.0 / ipratio=1.40 / pbratio=1.30 / aq-mode=2 / aq-strength=1.00 / no-cutree / zone-count=0 / no-strict-cbr / qg-size=32 / no-rc-grain / qpmax=69 / qpmin=0 / no-const-vbv / sar=1 / overscan=0 / videoformat=5 / range=0 / colorprim=1 / transfer=1 / colormatrix=1 / chromaloc=0 / display-window=0cll=0,0 / min-luma=0 / max-luma=1023 / log2-max-poc-lsb=8 / vui-timing-info / vui-hrd-info / slices=1 / no-opt-qp-pps / no-opt-ref-list-length-pps / no-multi-pass-opt-rps / scenecut-bias=0.05 / no-opt-cu-delta-qp / no-aq-motion / no-hdr / no-hdr-opt / no-dhdr10-opt / no-idr-recovery-sei / analysis-reuse-level=5 / scale-factor=0 / refine-intra=0 / refine-inter=0 / refine-mv=0 / refine-ctu-distortion=0 / no-limit-sao / ctu-info=0 / no-lowpass-dct / refine-analysis-type=65539 / copy-pic=1 / max-ausize-factor=1.0 / no-dynamic-refine / no-single-sei / no-hevc-aq / no-svt / no-field / qp-adaptation-range=1.00
Language : English
Default : Yes
Forced : No
Color range : Limited
Color primaries : BT.709
Transfer characteristics : BT.709
Matrix coefficients : BT.709

Audio #1
ID : 2
Format : AC-3
Format/Info : Audio Coding 3
Commercial name : Dolby Digital
Codec ID : A_AC3
Duration : 2 h 3 min
Bit rate mode : Constant
Bit rate : 448 kb/s
Channel(s) : 6 channels
Channel layout : L R C LFE Ls Rs
Sampling rate : 48.0 kHz
Frame rate : 31.250 FPS (1536 SPF)
Compression mode : Lossy
Stream size : 397 MiB (5%)
Title : Dub [License]
Language : Russian
Service kind : Complete Main
Default : Yes
Forced : Yes

Audio #2
ID : 3
Format : AC-3
Format/Info : Audio Coding 3
Commercial name : Dolby Digital
Codec ID : A_AC3
Duration : 2 h 3 min
Bit rate mode : Constant
Bit rate : 192 kb/s
Channel(s) : 2 channels
Channel layout : L R
Sampling rate : 48.0 kHz
Frame rate : 31.250 FPS (1536 SPF)
Compression mode : Lossy
Stream size : 170 MiB (2%)
Title : iTunes
Language : Ukrainian
Service kind : Complete Main
Default : No
Forced : No

Audio #3
ID : 4
Format : AC-3
Format/Info : Audio Coding 3
Commercial name : Dolby Digital
Codec ID : A_AC3
Duration : 2 h 3 min
Bit rate mode : Constant
Bit rate : 448 kb/s
Channel(s) : 6 channels
Channel layout : L R C LFE Ls Rs
Sampling rate : 48.0 kHz
Frame rate : 31.250 FPS (1536 SPF)
Compression mode : Lossy
Stream size : 397 MiB (5%)
Title : Original
Language : English
Service kind : Complete Main
Default : No
Forced : No

Text #1
ID : 5
Format : UTF-8
Codec ID : S_TEXT/UTF8
Codec ID/Info : UTF-8 Plain Text
Duration : 2 h 0 min
Bit rate : 4 b/s
Count of elements : 91
Stream size : 4.27 KiB (0%)
Title : Forced
Language : Russian
Default : Yes
Forced : Yes

Text #2
ID : 6
Format : UTF-8
Codec ID : S_TEXT/UTF8
Codec ID/Info : UTF-8 Plain Text
Duration : 2 h 2 min
Bit rate : 91 b/s
Count of elements : 1794
Stream size : 82.6 KiB (0%)
Title : Full
Language : Russian
Default : No
Forced : No

Text #3
ID : 7
Format : UTF-8
Codec ID : S_TEXT/UTF8
Codec ID/Info : UTF-8 Plain Text
Duration : 1 h 58 min
Bit rate : 4 b/s
Count of elements : 79
Stream size : 3.65 KiB (0%)
Title : Forced
Language : Ukrainian
Default : No
Forced : No

Text #4
ID : 8
Format : UTF-8
Codec ID : S_TEXT/UTF8
Codec ID/Info : UTF-8 Plain Text
Duration : 2 h 2 min
Bit rate : 102 b/s
Count of elements : 1618
Stream size : 92.0 KiB (0%)
Title : Full
Language : Ukrainian
Default : No
Forced : No

Text #5
ID : 9
Format : UTF-8
Codec ID : S_TEXT/UTF8
Codec ID/Info : UTF-8 Plain Text
Duration : 2 h 1 min
Bit rate : 67 b/s
Count of elements : 2221
Stream size : 59.6 KiB (0%)
Language : English
Default : No
Forced : No

Menu
00:00:00.000 : :CapĂtulo 01
00:07:33.202 : :CapĂtulo 02
00:14:56.645 : :CapĂtulo 03
00:23:43.255 : :CapĂtulo 04
00:31:05.613 : :CapĂtulo 05
00:38:43.070 : :CapĂtulo 06
00:45:26.348 : :CapĂtulo 07
00:53:27.329 : :CapĂtulo 08
01:00:22.035 : :CapĂtulo 09
01:07:29.253 : :CapĂtulo 10
01:12:55.162 : :CapĂtulo 11
01:22:12.344 : :CapĂtulo 12
01:29:49.092 : :CapĂtulo 13
01:36:47.802 : :CapĂtulo 14
01:42:08.580 : :CapĂtulo 15
01:53:55.912 : :CapĂtulo 16
Cкриншот1 Плохие парни навсегд / Bad Boys for Life (2020) BDRip 1080p [HEVC] 10 bit от HANNIBAL
Загружается...
Cкриншот2 Плохие парни навсегд / Bad Boys for Life (2020) BDRip 1080p [HEVC] 10 bit от HANNIBAL
Загружается...
Cкриншот3 Плохие парни навсегд / Bad Boys for Life (2020) BDRip 1080p [HEVC] 10 bit от HANNIBAL
Загружается...
Cкриншот4 Плохие парни навсегд / Bad Boys for Life (2020) BDRip 1080p [HEVC] 10 bit от HANNIBAL
Загружается...
Сэмпл Торрент🧲 Магнет

Кнопки "Позвать в чате" и "Спасибо" доступны только зарегистрированным/авторизованным пользователям!

Файлы: 1
  • Bad Boys for Life (2020) BDRip-HEVC 1080p.mkv   7.27 ГБ
Поблагодарили: 4
Don digidon, Koupets, melnik-10, stas67
Admin
02132407.27 ГБ

Добавление нового комментария

Добавление комментариев доступно только зарегистрированным/авторизованным пользователям.