Регистрация / Смена пароля

💬 Мини-чат

moonson: Alex302, ну, сообственно туда всем нашим врагам и дорога. Жалко только враг Жан-Поля застрял на 16 % и ни туда, и ни сюда 😄
Alex302: moonson, труп вашего врага растащило вороньё)
  • garant3v
  • Leon20052
Отправка сообщений доступно только зарегистрированным/авторизованным пользователям.
Онлайн (за 10 мин.): 2

Сияние / The Shining (1980) [Unrated US Cut] BDRip 1080p [HEVC] 10 bit от Мичман

HEVC
10 bit
Обложка Сияние / The Shining (1980) [Unrated US Cut] BDRip 1080p [HEVC] 10 bit от Мичман Год: 1980
Страна: США, Великобритания
Студия: Warner Bros., Hawk Films, Peregrine
Жанр: Ужасы, Триллер, Драма, Детектив
Продолжительность: 02:23:46

Режиссер: Стэнли Кубрик
В ролях: Джек Николсон, Шелли Дювалл, Дэнни Ллойд, Скэтмэн Крозерс, Бэрри Нельсон, Филип Стоун, Джо Тёркел, Энн Джексон, Тони Бертон, Лия Белдам

Описание: Главный герой — Джек Торренс — приехал в элегантный уединенный отель, чтобы поработать смотрителем во время мертвого сезона вместе со своей женой и сыном. Торренс здесь раньше никогда не бывал. Или это не совсем так? Ответ лежит во мраке, сотканном из преступного кошмара.

КиноПоиск
7.787 159702
IMDb
8.4
854650


Видео: 1920x1080, 10.1 Mbps
Аудио1: AC3, 2 ch, 192 Kbps -
Русский, Дублированный (Пифагор) + вставки многоголосого (Киномания) на расширенные сцены
Аудио2: AC3, 6 ch, 448 Kbps -
Русский, Многоголосый (Киномания)
Аудио3: AC3, 6 ch, 384 Kbps -
Русский, Многоголосый (НТВ)
Аудио4: AC3, 6 ch, 448 Kbps -
Английский, Оригинал
Субтитры: Русские, английские

Как за пару секунд удалить ненужные аудиодорожки и субтитры (Внимание! После удаления вы не сможете поддержать раздачу)

Лог (x265 info)
x265 [info]: frame I: Avg QP:18.51 kb/s
x265 [info]: frame P: Avg QP:19.86 kb/s
x265 [info]: frame B: Avg QP:21.78 kb/s
Медиаинфо
Общее
Уникальный идентификатор : 243253884861949809856277811130705306509 (0xB700FE7CF8BB4F408F158679BB56E38D)
Полное имя : R:\The Shining (1980) BDRip-HEVC 1080p.mkv
Формат : Matroska
Версия формата : Version 4 / Version 2
Размер файла : 11,6 Гбайт
Продолжительность : 2 ч. 23 м.
Общий поток : 11,6 Мбит/сек
Название фильма : The Shining (1980)
Дата кодирования : UTC 2020-05-18 17:16:52
Программа кодирования : mkvmerge v43.0.0 ('The Quartermaster') 64-bit
Библиотека кодирования : libebml v1.3.10 + libmatroska v1.5.2
Обложка : Yes
Attachments : cover.jpg

Видео
Идентификатор : 1
Формат : HEVC
Формат/Информация : High Efficiency Video Coding
Профиль формата : Main 10@L4.1@High
Идентификатор кодека : V_MPEGH/ISO/HEVC
Продолжительность : 2 ч. 23 м.
Битрейт : 10,1 Мбит/сек
Ширина : 1920 пикселей
Высота : 1080 пикселей
Соотношение сторон : 16:9
Режим частоты кадров : Постоянный
Частота кадров : 23,976 (24000/1001) кадра/сек
Цветовое пространство : YUV
Субдискретизация насыщенности : 4:2:0
Битовая глубина : 10 бит
Бит/(Пиксели*Кадры) : 0.204
Размер потока : 10,2 Гбайт (87%)
Библиотека кодирования : x265 3.3+1-g554c887ac:[Windows][MSVC 1924][64 bit] 10bit
Настройки программы : cpuid=1111039 / frame-threads=3 / numa-pools=12 / wpp / no-pmode / no-pme / no-psnr / no-ssim / log-level=2 / input-csp=1 / input-res=1920x1080 / interlace=0 / total-frames=203264 / level-idc=41 / high-tier=1 / uhd-bd=0 / ref=5 / no-allow-non-conformance / no-repeat-headers / annexb / no-aud / no-hrd / info / hash=0 / no-temporal-layers / open-gop / min-keyint=23 / keyint=240 / gop-lookahead=0 / bframes=8 / b-adapt=2 / b-pyramid / bframe-bias=0 / rc-lookahead=60 / lookahead-slices=4 / scenecut=40 / hist-scenecut=0 / radl=0 / no-splice / no-intra-refresh / ctu=32 / min-cu-size=8 / rect / amp / max-tu-size=32 / tu-inter-depth=4 / tu-intra-depth=4 / limit-tu=1 / rdoq-level=2 / dynamic-rd=0.00 / no-ssim-rd / signhide / no-tskip / nr-intra=0 / nr-inter=0 / no-constrained-intra / no-strong-intra-smoothing / max-merge=4 / limit-refs=2 / limit-modes / me=3 / subme=7 / merange=57 / temporal-mvp / no-frame-dup / no-hme / weightp / weightb / no-analyze-src-pics / deblock=-3:-3 / no-sao / no-sao-non-deblock / rd=6 / selective-sao=0 / no-early-skip / no-rskip / no-fast-intra / no-tskip-fast / no-cu-lossless / no-b-intra / no-splitrd-skip / rdpenalty=0 / psy-rd=2.00 / psy-rdoq=1.00 / no-rd-refine / no-lossless / cbqpoffs=0 / crqpoffs=0 / rc=crf / crf=20.0 / qcomp=0.60 / qpstep=4 / stats-write=0 / stats-read=0 / vbv-maxrate=50000 / vbv-bufsize=50000 / vbv-init=0.9 / crf-max=0.0 / crf-min=0.0 / ipratio=1.40 / pbratio=1.30 / aq-mode=1 / aq-strength=1.00 / no-cutree / zone-count=0 / no-strict-cbr / qg-size=32 / no-rc-grain / qpmax=69 / qpmin=0 / no-const-vbv / sar=1 / overscan=0 / videoformat=5 / range=0 / colorprim=1 / transfer=1 / colormatrix=1 / chromaloc=0 / display-window=0 / cll=0,0 / min-luma=0 / max-luma=1023 / log2-max-poc-lsb=8 / vui-timing-info / vui-hrd-info / slices=1 / no-opt-qp-pps / no-opt-ref-list-length-pps / no-multi-pass-opt-rps / scenecut-bias=0.05 / hist-threshold=0.01 / no-opt-cu-delta-qp / no-aq-motion / no-hdr10 / no-hdr10-opt / no-dhdr10-opt / no-idr-recovery-sei / analysis-reuse-level=0 / analysis-save-reuse-level=0 / analysis-load-reuse-level=0 / scale-factor=0 / refine-intra=0 / refine-inter=0 / refine-mv=1 / refine-ctu-distortion=0 / no-limit-sao / ctu-info=0 / no-lowpass-dct / refine-analysis-type=0 / copy-pic=1 / max-ausize-factor=1.0 / no-dynamic-refine / no-single-sei / no-hevc-aq / no-svt / no-field / qp-adaptation-range=1.00 / no-scenecut-aware-qpconformance-window-offsets / right=0 / bottom=0
Default : Да
Forced : Нет
Цветовой диапазон : Limited
Основные цвета : BT.709
Характеристики трансфера : BT.709
Коэффициенты матрицы : BT.709

Аудио #1
Идентификатор : 2
Формат : AC-3
Формат/Информация : Audio Coding 3
Идентификатор кодека : A_AC3
Продолжительность : 2 ч. 23 м.
Вид битрейта : Постоянный
Битрейт : 192 Кбит/сек
Каналы : 2 канала
Расположение каналов : Front: L R
Частота : 48,0 КГц
Частота кадров : 31,250 кадров/сек (1536 SPF)
Битовая глубина : 16 бит
Метод сжатия : С потерями
Размер потока : 197 Мбайт (2%)
Заголовок : Дублированный (Пифагор) + вставки MVO (Киномания)
Язык : Russian
ServiceKind/String : Complete Main
Default : Да
Forced : Нет

Аудио #2
Идентификатор : 3
Формат : AC-3
Формат/Информация : Audio Coding 3
Идентификатор кодека : A_AC3
Продолжительность : 2 ч. 23 м.
Вид битрейта : Постоянный
Битрейт : 448 Кбит/сек
Каналы : 6 каналов
Расположение каналов : Front: L C R, Side: L R, LFE
Частота : 48,0 КГц
Частота кадров : 31,250 кадров/сек (1536 SPF)
Битовая глубина : 16 бит
Метод сжатия : С потерями
Размер потока : 461 Мбайт (4%)
Заголовок : MVO [Киномания]
Язык : Russian
ServiceKind/String : Complete Main
Default : Нет
Forced : Нет

Аудио #3
Идентификатор : 4
Формат : AC-3
Формат/Информация : Audio Coding 3
Идентификатор кодека : A_AC3
Продолжительность : 2 ч. 23 м.
Вид битрейта : Постоянный
Битрейт : 384 Кбит/сек
Каналы : 6 каналов
Расположение каналов : Front: L C R, Side: L R, LFE
Частота : 48,0 КГц
Частота кадров : 31,250 кадров/сек (1536 SPF)
Битовая глубина : 16 бит
Метод сжатия : С потерями
Размер потока : 395 Мбайт (3%)
Заголовок : MVO [НТВ]
ServiceKind/String : Complete Main
Default : Нет
Forced : Нет

Аудио #4
Идентификатор : 5
Формат : AC-3
Формат/Информация : Audio Coding 3
Идентификатор кодека : A_AC3
Продолжительность : 2 ч. 23 м.
Вид битрейта : Постоянный
Битрейт : 448 Кбит/сек
Каналы : 6 каналов
Расположение каналов : Front: L C R, Side: L R, LFE
Частота : 48,0 КГц
Частота кадров : 31,250 кадров/сек (1536 SPF)
Битовая глубина : 16 бит
Метод сжатия : С потерями
Размер потока : 461 Мбайт (4%)
Язык : English
ServiceKind/String : Complete Main
Default : Нет
Forced : Нет

Текст #1
Идентификатор : 6
Формат : UTF-8
Идентификатор кодека : S_TEXT/UTF8
Идентификатор кодека/Информация : UTF-8 Plain Text
Продолжительность : 2 ч. 19 м.
Битрейт : 67 бит/сек
ElementCount : 1469
Размер потока : 68,7 Кбайт (0%)
Заголовок : Киномания
Язык : Russian
Default : Нет
Forced : Нет

Текст #2
Идентификатор : 7
Формат : UTF-8
Идентификатор кодека : S_TEXT/UTF8
Идентификатор кодека/Информация : UTF-8 Plain Text
Продолжительность : 2 ч. 14 м.
Битрейт : 40 бит/сек
ElementCount : 1301
Размер потока : 39,7 Кбайт (0%)
Язык : English
Default : Нет
Forced : Нет

Меню
00:00:00.000 : :Drive to the Overlook
00:03:00.847 : :The Interview
00:05:05.638 : :Quite a Story
00:10:34.467 : :Bloody Vision
00:12:07.893 : :The Doctor's Questions
00:14:24.697 : :Family History
00:17:38.390 : :Closing Day
00:20:31.230 : :The Tour
00:24:58.997 : :Doc Gets The Message
00:28:52.063 : :Talk of Shining - and Room 237
00:34:10.547 : :A Month Later: Bouncing and Exploring
00:40:29.260 : :Tuesday: Curiosity for Danny, Rules for Wendy
00:46:01.425 : :Thursday: Snowbound
00:46:52.643 : :Saturday: Slipping Out of Touch
00:49:17.788 : :Come and Play
00:51:16.573 : :Monday: "I Love You, Danny"
00:57:02.252 : :Wednesday: Room 237 Beckons
00:58:37.180 : :Nightmares and Neck Wounds
01:02:37.587 : :The Gold Room
01:06:06.128 : :Words of Wisdom
01:09:01.136 : :Halloran Shines; Jack Rages
01:16:52.774 : :Danny Shines; Jack Rages
01:22:19.100 : :The Party
01:25:30.291 : :Delbert Grady
01:31:41.496 : :"Redrum! Danny's Not Here"
01:34:04.305 : :Sabotage
01:35:49.076 : :Halloran Flies In
01:39:30.965 : :All Work and No Play
01:43:50.390 : :What Should Be Done With Danny
01:49:26.893 : :Jack In Storage; Wendy In A Frenzy
01:54:24.858 : :Grady Intervenes; Halloran en Route
01:58:45.118 : :"Redrum!"
02:01:09.929 : :"Here's Johnny"
02:05:30.523 : :On The Prowl
02:07:33.145 : :Halloran Killed
02:10:23.982 : :Into The Maze
02:12:10.422 : :"Great Party, Isn't It?"
02:15:03.762 : :Escape
02:18:57.495 : :The Overlook Claims Jack
02:21:17.968 : :End Credits
Cкриншот1 Сияние / The Shining (1980) [Unrated US Cut] BDRip 1080p [HEVC] 10 bit от Мичман
Загружается...
Cкриншот2 Сияние / The Shining (1980) [Unrated US Cut] BDRip 1080p [HEVC] 10 bit от Мичман
Загружается...
Cкриншот3 Сияние / The Shining (1980) [Unrated US Cut] BDRip 1080p [HEVC] 10 bit от Мичман
Загружается...
Cкриншот4 Сияние / The Shining (1980) [Unrated US Cut] BDRip 1080p [HEVC] 10 bit от Мичман
Загружается...
Сэмпл Торрент🧲 Магнет

Кнопки "Позвать в чате" и "Спасибо" доступны только зарегистрированным/авторизованным пользователям!

Файлы: 1
  • The Shining (1980) BDRip-HEVC 1080p.mkv   11.64 ГБ
Поблагодарили: 4
Alex302, LastSurviv0r, makss333, silver
Admin
0163011.64 ГБ

Добавление нового комментария

Добавление комментариев доступно только зарегистрированным/авторизованным пользователям.