Регистрация / Смена пароля

💬 Мини-чат

moonson: Alex302, ну, сообственно туда всем нашим врагам и дорога. Жалко только враг Жан-Поля застрял на 16 % и ни туда, и ни сюда 😄
Alex302: moonson, труп вашего врага растащило вороньё)
  • OldGamer
  • brukvalub
  • garant3v
  • Jonny3387
  • mas2807
  • phillip
  • pmihail99
Отправка сообщений доступно только зарегистрированным/авторизованным пользователям.
Онлайн (за 10 мин.): 7

Они сражались за Родину (1975) BDRip 1080p [HEVC] 10 bit от ADVOKAT69

HEVC
10 bit
Обложка Они сражались за Родину (1975) BDRip 1080p [HEVC] 10 bit от ADVOKAT69 Год: 1975
Страна: СССР
Студия: Мосфильм
Жанр: Драма, Военный, История
Продолжительность: 2 серии - 02:37:25

Режиссер: Сергей Бондарчук
В ролях: Василий Шукшин, Вячеслав Тихонов, Сергей Бондарчук, Георгий Бурков, Юрий Никулин, Иван Лапиков, Николай Губенко, Андрей Ростоцкий, Николай Волков, Николай Шутько

Описание: Июль 1942 года. На подступах к Сталинграду обескровленные, измотанные советские войска ведут тяжелые оборонительные бои, неся огромные потери… Фильм рассказывает о подвиге рядовых солдат, любви к родной земле, об истинной цене победы…

КиноПоиск
8.381 103942
IMDb
8
2209


Исходник: Blu-Ray
Видео: 1488x1080, 8990 - 7689 Kbps
Аудио: DTS, 6 ch, 1509 Kbps - Русский, Оригинал
Субтитры: нет

Лог (x265 info)
x265 [info]: frame I: 658, Avg QP:18.25 kb/s: 22242.79
x265 [info]: frame P: 21302, Avg QP:19.65 kb/s: 18607.33
x265 [info]: frame B: 95367, Avg QP:21.63 kb/s: 6748.89
x265 [info]: Weighted P-Frames: Y:17.0% UV:13.4%
x265 [info]: Weighted B-Frames: Y:10.1% UV:7.0%
x265 [info]: consecutive B-frames: 2.4% 1.6% 3.2% 21.8% 13.5% 45.9% 6.5% 3.4% 1.0% 0.2% 0.2% 0.3%
Медиаинфо
Общее
Уникальный идентификатор : 235617526293993107666186808888874392946 (0xB14248F1405E52CD83FA9053E6465D72)
Полное имя : D:\Они сражались за Родину\1.фильм.mkv
Формат : Matroska
Версия формата : Version 4
Размер файла : 5,98 Гбайт
Продолжительность : 1 ч. 21 м.
Общий поток : 10,5 Мбит/сек
Дата кодирования : UTC 2020-05-15 21:55:10
Программа кодирования : mkvmerge v9.2.0 ('Photograph') 64bit
Библиотека кодирования : libebml v1.3.3 + libmatroska v1.4.4

Видео
Идентификатор : 1
Формат : HEVC
Формат/Информация : High Efficiency Video Coding
Профиль формата : Main 10@L4.1@High
Идентификатор кодека : V_MPEGH/ISO/HEVC
Продолжительность : 1 ч. 21 м.
Битрейт : 8990 Кбит/сек
Ширина : 1488 пикселей
Высота : 1080 пикселей
Соотношение сторон : 1,378
Режим частоты кадров : Постоянный
Частота кадров : 23,976 (24000/1001) кадра/сек
Цветовое пространство : YUV
Субдискретизация насыщенности : 4:2:0
Битовая глубина : 10 бит
Бит/(Пиксели*Кадры) : 0.233
Размер потока : 5,12 Гбайт (86%)
Библиотека кодирования : x265 3.3+2-gd9a7411cc:[Windows][MSVC 1925][64 bit] 10bit
Настройки программы : cpuid=1049583 / frame-threads=3 / numa-pools=8 / wpp / no-pmode / no-pme / no-psnr / no-ssim / log-level=2 / input-csp=1 / input-res=1488x1080 / interlace=0 / total-frames=117327 / level-idc=41 / high-tier=1 / uhd-bd=0 / ref=5 / no-allow-non-conformance / no-repeat-headers / annexb / no-aud / no-hrd / info / hash=0 / no-temporal-layers / open-gop / min-keyint=24 / keyint=240 / gop-lookahead=0 / bframes=11 / b-adapt=2 / b-pyramid / bframe-bias=0 / rc-lookahead=40 / lookahead-slices=4 / scenecut=40 / hist-scenecut=0 / radl=0 / no-splice / no-intra-refresh / ctu=32 / min-cu-size=8 / rect / no-amp / max-tu-size=32 / tu-inter-depth=4 / tu-intra-depth=4 / limit-tu=1 / rdoq-level=2 / dynamic-rd=4.00 / no-ssim-rd / signhide / no-tskip / nr-intra=0 / nr-inter=0 / constrained-intra / no-strong-intra-smoothing / max-merge=3 / limit-refs=3 / limit-modes / me=3 / subme=7 / merange=57 / temporal-mvp / no-frame-dup / no-hme / weightp / weightb / no-analyze-src-pics / deblock=-2:-2 / no-sao / no-sao-non-deblock / rd=4 / selective-sao=0 / no-early-skip / rskip / no-fast-intra / no-tskip-fast / no-cu-lossless / b-intra / no-splitrd-skip / rdpenalty=0 / psy-rd=1.50 / psy-rdoq=0.70 / no-rd-refine / no-lossless / cbqpoffs=0 / crqpoffs=0 / rc=crf / crf=19.0 / qcomp=0.60 / qpstep=4 / stats-write=0 / stats-read=0 / vbv-maxrate=50000 / vbv-bufsize=50000 / vbv-init=0.9 / crf-max=0.0 / crf-min=0.0 / ipratio=1.40 / pbratio=1.30 / aq-mode=2 / aq-strength=0.80 / no-cutree / zone-count=0 / no-strict-cbr / qg-size=32 / no-rc-grain / qpmax=69 / qpmin=0 / no-const-vbv / sar=1 / overscan=0 / videoformat=5 / range=0 / colorprim=1 / transfer=1 / colormatrix=1 / chromaloc=0 / display-window=0 / cll=0,0 / min-luma=0 / max-luma=1023 / log2-max-poc-lsb=8 / vui-timing-info / vui-hrd-info / slices=1 / no-opt-qp-pps / no-opt-ref-list-length-pps / no-multi-pass-opt-rps / scenecut-bias=0.05 / hist-threshold=0.01 / no-opt-cu-delta-qp / no-aq-motion / no-hdr10 / no-hdr10-opt / no-dhdr10-opt / no-idr-recovery-sei / analysis-reuse-level=0 / analysis-save-reuse-level=0 / analysis-load-reuse-level=0 / scale-factor=0 / refine-intra=0 / refine-inter=0 / refine-mv=1 / refine-ctu-distortion=0 / no-limit-sao / ctu-info=0 / no-lowpass-dct / refine-analysis-type=0 / copy-pic=1 / max-ausize-factor=1.0 / no-dynamic-refine / no-single-sei / no-hevc-aq / no-svt / no-field / qp-adaptation-range=1.00 / no-scenecut-aware-qpconformance-window-offsets / right=0 / bottom=0
Default : Да
Forced : Нет
Цветовой диапазон : Limited
Основные цвета : BT.709
Характеристики трансфера : BT.709
Коэффициенты матрицы : BT.709

Аудио
Идентификатор : 2
Формат : DTS
Формат/Информация : Digital Theater Systems
Идентификатор кодека : A_DTS
Продолжительность : 1 ч. 21 м.
Вид битрейта : Постоянный
Битрейт : 1509 Кбит/сек
Каналы : 6 каналов
ChannelLayout : C L R Ls Rs LFE
Частота : 48,0 КГц
Частота кадров : 93,750 кадра/сек (512 SPF)
Битовая глубина : 24 бит
Метод сжатия : С потерями
Размер потока : 882 Мбайт (14%)
Заголовок : Русский
Язык : Russian
Default : Да
Forced : Нет

Меню
00:00:00.000 : en:Chapter 1
00:07:34.454 : en:Chapter 2
00:18:17.096 : en:Chapter 3
00:24:18.457 : en:Chapter 4
00:31:00.859 : en:Chapter 5
00:41:29.487 : en:Chapter 6
00:50:25.022 : en:Chapter 7
00:58:38.515 : en:Chapter 8
01:12:39.355 : en:Chapter 9
01:21:33.513 : en:Chapter 10
Cкриншот1 Они сражались за Родину (1975) BDRip 1080p [HEVC] 10 bit от ADVOKAT69
Загружается...
Cкриншот2 Они сражались за Родину (1975) BDRip 1080p [HEVC] 10 bit от ADVOKAT69
Загружается...
Cкриншот3 Они сражались за Родину (1975) BDRip 1080p [HEVC] 10 bit от ADVOKAT69
Загружается...
Cкриншот4 Они сражались за Родину (1975) BDRip 1080p [HEVC] 10 bit от ADVOKAT69
Загружается...
Сэмпл Торрент🧲 Магнет

Кнопки "Позвать в чате" и "Спасибо" доступны только зарегистрированным/авторизованным пользователям!

Файлы: 2
  • Они сражались за Родину
    • 1.фильм.mkv   5.98 ГБ
    • 2.фильм.mkv   4.96 ГБ
Поблагодарили: 12
and50, aquarius, bad999, D16T, garboxer, GIS88, ko1ob, LastSurviv0r, makss333, pr3ss, Rexfire, saney
ADVOKAT69
058130 (2)  10.94 ГБ

Добавление нового комментария

Добавление комментариев доступно только зарегистрированным/авторизованным пользователям.