Регистрация / Смена пароля

💬 Мини-чат

moonson: Alex302, ну, сообственно туда всем нашим врагам и дорога. Жалко только враг Жан-Поля застрял на 16 % и ни туда, и ни сюда 😄
Alex302: moonson, труп вашего врага растащило вороньё)
  • garant3v
  • Leon20052
Отправка сообщений доступно только зарегистрированным/авторизованным пользователям.
Онлайн (за 10 мин.): 2

Зов предков / The Call of the Wild (2020) BDRip 1080p [HEVC] 10 bit от HANNIBAL

HEVC
10 bit
Обложка Зов предков / The Call of the Wild (2020) BDRip 1080p [HEVC] 10 bit от HANNIBAL Год: 2020
Страна: США, Канада
Студия: 3 Arts Entertainment, Twentieth Century Fox Animation, Twentieth Century
Жанр: Драма, Приключения, Семейный
Продолжительность: 01:39:42

Режиссер: Крис Сандерс
В ролях: Харрисон Форд, Омар Си, Кара Ги, Дэн Стивенс, Брэдли Уитфорд, Джин Луиса Келли, Майкл Хорс, Карен Гиллан, Колин Вуделл, Мика Фицджералд

Описание: История Бака, дружелюбного пса, чья размеренная домашняя жизнь перевернулась с ног на голову во времена золотой лихорадки в 1880-х, когда его вырвали из дома в Калифорнии и перевезли в дикую и холодную Аляску. Будучи новичком в упряжке почтовой службы, а впоследствии лидером, Бак попадает в невероятное приключение, находит свое место в мире и становится хозяином своей жизни.

КиноПоиск
7.233 22230
IMDb
6.8
23197


Видео: 1920x804, 4768 Kbps
Аудио1: AC3, 6 ch, 384 Kbps -
Русский, Дублированный (iTunes)
Аудио2: AC3, 6 ch, 448 Kbps -
Английский, Оригинал
Субтитры: Русские (форсированные, полные), английские

Как за пару секунд удалить ненужные аудиодорожки и субтитры (Внимание! После удаления вы не сможете поддержать раздачу)

Медиаинфо
General
Unique ID : 313260683699888439075529152151834531513 (0xEBABD02837E5F88CFE78214B98E716B9)
Complete name : D:\The Call of the Wild (2020) BDRip-HEVC 1080p 10 bit.mkv
Format : Matroska
Format version : Version 4
File size : 3.98 GiB
Duration : 1 h 39 min
Overall bit rate : 5 714 kb/s
Movie name : Зов предков
Writing application : XviD4PSP 7.0.501 PRO
Writing library : Lavf57.71.100
ErrorDetectionType : Per level 1
Attachments : poster.jpg
ACTORS : Харрисон Форд, Омар Си,
COUNTRY : США
DATE : 2020
DIRECTOR : Крис Сандерс
ENCODING_INFO : MATROSKA,WEBM > MKV Пользовательский / H264 > X265 CRF 19.5 Medium / AC3 > AC3 CBR 384kbps / DTS-HD MA > AC3 CBR 448kbps
GENRE : драма, приключения, семейный
HD_VIDEO : 1
Language : und
MEDIA_TYPE : 9
ORIGINAL_TITLE : The Call of the Wild

Video
ID : 1
Format : HEVC
Format/Info : High Efficiency Video Coding
Format profile : Main 10@L4.1@High
Codec ID : V_MPEGH/ISO/HEVC
Duration : 1 h 39 min
Bit rate : 4 768 kb/s
Width : 1 920 pixels
Height : 804 pixels
Display aspect ratio : 2.40:1
Frame rate mode : Constant
Frame rate : 23.976 (24000/1001) FPS
Color space : YUV
Chroma subsampling : 4:2:0
Bit depth : 10 bits
Bits/(Pixel*Frame) : 0.129
Stream size : 3.32 GiB (83%)
Writing library : x265 3.1+7-147fb92c5ed5:[Windows][clang 8.0.0][64 bit] 10bit
Encoding settings : cpuid=1111039 / frame-threads=13 / wpp / no-pmode / no-pme / no-psnr / no-ssim / log-level=3 / input-csp=1 / input-res=1920x804 / interlace=0 / total-frames=0 / level-idc=41 / high-tier=1 / uhd-bd=0 / ref=5 / allow-non-conformance / no-repeat-headers / annexb / no-aud / no-hrd / info / hash=0 / no-temporal-layers / open-gop / min-keyint=23 / keyint=240 / gop-lookahead=0 / bframes=8 / b-adapt=2 / b-pyramid / bframe-bias=0 / rc-lookahead=60 / lookahead-slices=4 / scenecut=60 / radl=0 / no-splice / no-intra-refresh / ctu=64 / min-cu-size=8 / rect / amp / max-tu-size=32 / tu-inter-depth=4 / tu-intra-depth=4 / limit-tu=4 / rdoq-level=2 / dynamic-rd=0.00 / no-ssim-rd / signhide / no-tskip / nr-intra=0 / nr-inter=0 / no-constrained-intra / no-strong-intra-smoothing / max-merge=5 / limit-refs=1 / limit-modes / me=3 / subme=7 / merange=57 / temporal-mvp / no-hme / weightp / weightb / no-analyze-src-pics / deblock=-3:-3 / no-sao / no-sao-non-deblock / rd=6 / no-early-skip / no-rskip / no-fast-intra / no-tskip-fast / no-cu-lossless / b-intra / no-splitrd-skip / rdpenalty=0 / psy-rd=2.00 / psy-rdoq=1.00 / no-rd-refine / no-lossless / cbqpoffs=0 / crqpoffs=0 / rc=crf / crf=19.5 / qcomp=0.70 / qpstep=4 / stats-write=0 / stats-read=0 / vbv-maxrate=50000 / vbv-bufsize=50000 / vbv-init=0.9 / crf-max=30.0 / crf-min=0.0 / ipratio=1.40 / pbratio=1.30 / aq-mode=2 / aq-strength=1.00 / no-cutree / zone-count=0 / no-strict-cbr / qg-size=32 / no-rc-grain / qpmax=69 / qpmin=0 / no-const-vbv / sar=1 / overscan=0 / videoformat=5 / range=0 / colorprim=1 / transfer=1 / colormatrix=1 / chromaloc=0 / display-window=0cll=0,0 / min-luma=0 / max-luma=1023 / log2-max-poc-lsb=8 / vui-timing-info / vui-hrd-info / slices=1 / no-opt-qp-pps / no-opt-ref-list-length-pps / no-multi-pass-opt-rps / scenecut-bias=0.05 / no-opt-cu-delta-qp / no-aq-motion / no-hdr / no-hdr-opt / no-dhdr10-opt / no-idr-recovery-sei / analysis-reuse-level=5 / scale-factor=0 / refine-intra=0 / refine-inter=0 / refine-mv=0 / refine-ctu-distortion=0 / no-limit-sao / ctu-info=0 / no-lowpass-dct / refine-analysis-type=67699375 / copy-pic=1 / max-ausize-factor=1.0 / no-dynamic-refine / no-single-sei / no-hevc-aq / no-svt / no-field / qp-adaptation-range=1.00
Language : English
Default : Yes
Forced : No
Color range : Limited
Color primaries : BT.709
Transfer characteristics : BT.709
Matrix coefficients : BT.709

Audio #1
ID : 2
Format : AC-3
Format/Info : Audio Coding 3
Commercial name : Dolby Digital
Codec ID : A_AC3
Duration : 1 h 39 min
Bit rate mode : Constant
Bit rate : 384 kb/s
Channel(s) : 6 channels
Channel layout : L R C LFE Ls Rs
Sampling rate : 48.0 kHz
Frame rate : 31.250 FPS (1536 SPF)
Bit depth : 32 bits
Compression mode : Lossy
Stream size : 274 MiB (7%)
Title : iTunes
Language : Russian
Service kind : Complete Main
Default : Yes
Forced : Yes

Audio #2
ID : 3
Format : AC-3
Format/Info : Audio Coding 3
Commercial name : Dolby Digital
Codec ID : A_AC3
Duration : 1 h 39 min
Bit rate mode : Constant
Bit rate : 448 kb/s
Channel(s) : 6 channels
Channel layout : L R C LFE Ls Rs
Sampling rate : 48.0 kHz
Frame rate : 31.250 FPS (1536 SPF)
Bit depth : 16 bits
Compression mode : Lossy
Stream size : 319 MiB (8%)
Title : Original
Language : English
Service kind : Complete Main
Default : Yes
Forced : No

Text #1
ID : 4
Format : UTF-8
Codec ID : S_TEXT/UTF8
Codec ID/Info : UTF-8 Plain Text
Title : Forced
Language : Russian
Default : Yes
Forced : Yes

Text #2
ID : 5
Format : UTF-8
Codec ID : S_TEXT/UTF8
Codec ID/Info : UTF-8 Plain Text
Title : Full [iTunes]
Language : Russian
Default : Yes
Forced : No

Text #3
ID : 6
Format : UTF-8
Codec ID : S_TEXT/UTF8
Codec ID/Info : UTF-8 Plain Text
Title : Full
Language : English
Default : No
Forced : No

Menu
00:00:00.000 : :Chapter 01
00:03:35.882 : :Chapter 02
00:05:58.608 : :Chapter 03
00:10:31.339 : :Chapter 04
00:15:49.699 : :Chapter 05
00:19:03.851 : :Chapter 06
00:23:29.533 : :Chapter 07
00:27:28.355 : :Chapter 08
00:32:27.821 : :Chapter 09
00:34:32.529 : :Chapter 10
00:41:43.793 : :Chapter 11
00:46:14.522 : :Chapter 12
00:50:07.338 : :Chapter 13
00:55:15.562 : :Chapter 14
01:00:30.919 : :Chapter 15
01:04:04.632 : :Chapter 16
01:07:46.980 : :Chapter 17
01:12:38.563 : :Chapter 18
01:17:02.952 : :Chapter 19
01:19:25.219 : :Chapter 20
01:23:07.107 : :Chapter 21
01:26:21.218 : :Chapter 22
01:29:26.194 : :Chapter 23
01:32:22.620 : :Chapter 24
Cкриншот1 Зов предков / The Call of the Wild (2020) BDRip 1080p [HEVC] 10 bit от HANNIBAL
Загружается...
Cкриншот2 Зов предков / The Call of the Wild (2020) BDRip 1080p [HEVC] 10 bit от HANNIBAL
Загружается...
Cкриншот3 Зов предков / The Call of the Wild (2020) BDRip 1080p [HEVC] 10 bit от HANNIBAL
Загружается...
Cкриншот4 Зов предков / The Call of the Wild (2020) BDRip 1080p [HEVC] 10 bit от HANNIBAL
Загружается...
Сэмпл Торрент🧲 Магнет

Кнопки "Позвать в чате" и "Спасибо" доступны только зарегистрированным/авторизованным пользователям!

Файлы: 1
  • The Call of the Wild (2020) BDRip-HEVC 1080p 10 bit.mkv   3.98 ГБ
Поблагодарили: 6
Chance, kotyara08, LastSurviv0r, makss333, mvclub, Vitoss6
Admin
04883358113.98 ГБ

Добавление нового комментария

Добавление комментариев доступно только зарегистрированным/авторизованным пользователям.