Регистрация / Смена пароля

💬 Мини-чат

moonson: Alex302, ну, сообственно туда всем нашим врагам и дорога. Жалко только враг Жан-Поля застрял на 16 % и ни туда, и ни сюда 😄
Alex302: moonson, труп вашего врага растащило вороньё)
  • aquarius
  • garant3v
  • igor302
  • iha777
  • Keiser
  • Korbis
  • podvoh7
  • Voodooo83
  • yri150461
Отправка сообщений доступно только зарегистрированным/авторизованным пользователям.
Онлайн (за 10 мин.): 9

Плохие парни навсегда / Bad Boys for Life (2020) BDRip 1080p [HEVC] 10 bit от XuMuK

HEVC
10 bit
Обложка Плохие парни навсегда / Bad Boys for Life (2020) BDRip 1080p [HEVC] 10 bit от XuMuK Год: 2020
Страна: США, Мексика
Студия: Columbia Pictures, 2.0 Entertainment, Columbia Pictures Mexico, Don Simpson/Jerry Bruckheimer Films, Overbrook Entertainment
Жанр: Боевик, Комедия, Криминал, Триллер
Продолжительность: 02:03:58

Режиссер: Адиль Эль Арби, Билал Фалла
В ролях: Уилл Смит, Мартин Лоуренс, Ванесса Энн Хадженс, Александр Людвиг, Чарльз Мелтон, Паола Нуньес, Кейт дель Кастильо, Ники Джем, Джо Пантольяно, Джейкоб Скип

Описание: Детективы Майк Лоури и Маркус Бёрнетт снова в деле! Правда, их отстраняют от всех операций, но разве отчаянных друзей когда-нибудь что-либо останавливало? Ведь на этот раз на Майка открывает охоту некто из его прошлой жизни. Так что парням придется отжечь по полной!


Исходник: BDRemux
Видео: 1920x802, 12800 Kbps
Аудио1: Русская, AC3, 448 Кбит/сек, Front: L C R, Side: L R, LFE, 48,0 КГц (Лицензия)
Аудио2: Русская, AC3, 448 Кбит/сек, Front: L C R, Side: L R, LFE, 48,0 КГц (MVO HDRezka Studio)
Аудио3: Английская, DTS, 1509 Кбит/сек, Front: L C R, Side: L R, LFE, 48,0 КГц, 16 бит (Оригинал)
Субтитры: Русские (форсированные, полные), Английские

Как за пару секунд удалить ненужные аудиодорожки и субтитры (Внимание! После удаления вы не сможете поддержать раздачу)

Лог (x265 info)
x265 [info]: frame I: 1890, Avg QP:17.65 kb/s: 30700.54
x265 [info]: frame P: 29135, Avg QP:19.14 kb/s: 23330.41
x265 [info]: frame B: 147319, Avg QP:21.64 kb/s: 10482.16
x265 [info]: Weighted P-Frames: Y:5.5% UV:5.0%
x265 [info]: Weighted B-Frames: Y:10.5% UV:8.5%
x265 [info]: consecutive B-frames: 7.9% 1.8% 3.7% 22.4% 9.9% 24.2% 6.9% 10.9% 3.3% 4.8% 1.1% 1.4% 0.5% 0.5% 0.2% 0.3% 0.3%
Медиаинфо
General
Unique ID : 253369610872281951993643901227589242761 (0xBE9D364969487217750BE65E0D290F89)
Complete name : H:\HEVC 2\10 BIT\Bad Boys\Bad.Boys_for_Life_2020_BDRip_1080p_[HEVC]_10 bit_by XuMuK.mkv
Format : Matroska
Format version : Version 4 / Version 2
File size : 13.2 GiB
Duration : 2 h 3 min
Overall bit rate : 15.2 Mb/s
Movie name : Bad.Boys_for_Life_2020_BDRip_1080p_[HEVC]_10 bit_by XuMuK
Encoded date : UTC 2020-05-13 18:33:13
Writing application : mkvmerge v45.0.0 ('Heaven in Pennies') 64-bit
Writing library : libebml v1.3.10 + libmatroska v1.5.2
Cover : Yes
Attachments : cover.jpg

Video
ID : 1
Format : HEVC
Format/Info : High Efficiency Video Coding
Format profile : Main 10@L4.1@High
Codec ID : V_MPEGH/ISO/HEVC
Duration : 2 h 3 min
Bit rate : 12.8 Mb/s
Width : 1 920 pixels
Height : 802 pixels
Display aspect ratio : 2.40:1
Frame rate mode : Constant
Frame rate : 23.976 (24000/1001) FPS
Color space : YUV
Chroma subsampling : 4:2:0
Bit depth : 10 bits
Bits/(Pixel*Frame) : 0.347
Stream size : 11.1 GiB (84%)
Writing library : x265 3.3+2-gbe2d82093:[Windows][GCC 10.0.1][64 bit] 10bit
Encoding settings : cpuid=1111039 / frame-threads=4 / numa-pools=16 / wpp / no-pmode / no-pme / no-psnr / no-ssim / log-level=2 / input-csp=1 / input-res=1920x802 / interlace=0 / total-frames=178344 / level-idc=41 / high-tier=1 / uhd-bd=0 / ref=5 / no-allow-non-conformance / no-repeat-headers / annexb / no-aud / no-hrd / info / hash=0 / no-temporal-layers / open-gop / min-keyint=23 / keyint=240 / gop-lookahead=0 / bframes=16 / b-adapt=2 / b-pyramid / bframe-bias=0 / rc-lookahead=60 / lookahead-slices=0 / scenecut=40 / hist-scenecut=0 / radl=0 / no-splice / no-intra-refresh / ctu=32 / min-cu-size=8 / rect / amp / max-tu-size=32 / tu-inter-depth=4 / tu-intra-depth=4 / limit-tu=1 / rdoq-level=1 / dynamic-rd=0.00 / no-ssim-rd / signhide / no-tskip / nr-intra=0 / nr-inter=0 / no-constrained-intra / no-strong-intra-smoothing / max-merge=5 / limit-refs=0 / no-limit-modes / me=3 / subme=7 / merange=64 / temporal-mvp / no-frame-dup / hme / Level / merange / L0,L1,L2=16,32,64 / weightp / weightb / no-analyze-src-pics / deblock=-2:-2 / no-sao / no-sao-non-deblock / rd=6 / selective-sao=0 / no-early-skip / rskip / no-fast-intra / no-tskip-fast / no-cu-lossless / b-intra / no-splitrd-skip / rdpenalty=0 / psy-rd=1.50 / psy-rdoq=0.50 / no-rd-refine / no-lossless / cbqpoffs=0 / crqpoffs=0 / rc=crf / crf=19.0 / qcomp=0.70 / qpstep=4 / stats-write=0 / stats-read=0 / vbv-maxrate=50000 / vbv-bufsize=50000 / vbv-init=0.9 / crf-max=0.0 / crf-min=0.0 / ipratio=1.40 / pbratio=1.30 / aq-mode=1 / aq-strength=0.80 / no-cutree / zone-count=1 / zones: / start-frame=169706 / end-frame=178344 / qp=40 / no-strict-cbr / qg-size=32 / no-rc-grain / qpmax=69 / qpmin=0 / no-const-vbv / sar=1 / overscan=0 / videoformat=5 / range=0 / colorprim=1 / transfer=1 / colormatrix=1 / chromaloc=0 / display-window=0 / cll=0,0 / min-luma=0 / max-luma=1023 / log2-max-poc-lsb=8 / vui-timing-info / vui-hrd-info / slices=1 / no-opt-qp-pps / no-opt-ref-list-length-pps / no-multi-pass-opt-rps / scenecut-bias=0.05 / hist-threshold=0.01 / no-opt-cu-delta-qp / no-aq-motion / no-hdr10 / no-hdr10-opt / no-dhdr10-opt / no-idr-recovery-sei / analysis-reuse-level=0 / analysis-save-reuse-level=0 / analysis-load-reuse-level=0 / scale-factor=0 / refine-intra=0 / refine-inter=0 / refine-mv=1 / refine-ctu-distortion=0 / no-limit-sao / ctu-info=0 / no-lowpass-dct / refine-analysis-type=0 / copy-pic=1 / max-ausize-factor=1.0 / no-dynamic-refine / no-single-sei / no-hevc-aq / no-svt / no-field / qp-adaptation-range=1.00 / no-scenecut-aware-qpconformance-window-offsets / right=0 / bottom=0
Default : Yes
Forced : No
Color range : Limited
Color primaries : BT.709
Transfer characteristics : BT.709
Matrix coefficients : BT.709

Audio #1
ID : 2
Format : AC-3
Format/Info : Audio Coding 3
Commercial name : Dolby Digital
Codec ID : A_AC3
Duration : 2 h 3 min
Bit rate mode : Constant
Bit rate : 448 kb/s
Channel(s) : 6 channels
Channel layout : L R C LFE Ls Rs
Sampling rate : 48.0 kHz
Frame rate : 31.250 FPS (1536 SPF)
Bit depth : 16 bits
Compression mode : Lossy
Stream size : 397 MiB (3%)
Title : DUB Лицензия
Language : Russian
Service kind : Complete Main
Default : Yes
Forced : Yes

Audio #2
ID : 3
Format : AC-3
Format/Info : Audio Coding 3
Commercial name : Dolby Digital
Codec ID : A_AC3
Duration : 2 h 3 min
Bit rate mode : Constant
Bit rate : 448 kb/s
Channel(s) : 6 channels
Channel layout : L R C LFE Ls Rs
Sampling rate : 48.0 kHz
Frame rate : 31.250 FPS (1536 SPF)
Bit depth : 16 bits
Compression mode : Lossy
Stream size : 397 MiB (3%)
Title : MVO [HDRezka Studio]
Language : Russian
Service kind : Complete Main
Default : No
Forced : No

Audio #3
ID : 4
Format : DTS
Format/Info : Digital Theater Systems
Codec ID : A_DTS
Duration : 2 h 3 min
Bit rate mode : Constant
Bit rate : 1 509 kb/s
Channel(s) : 6 channels
Channel layout : C L R Ls Rs LFE
Sampling rate : 48.0 kHz
Frame rate : 93.750 FPS (512 SPF)
Bit depth : 16 bits
Compression mode : Lossy
Stream size : 1.31 GiB (10%)
Title : Original
Language : English
Default : No
Forced : No

Text #1
ID : 5
Format : UTF-8
Codec ID : S_TEXT/UTF8
Codec ID/Info : UTF-8 Plain Text
Duration : 2 h 0 min
Bit rate : 4 b/s
Count of elements : 91
Stream size : 4.27 KiB (0%)
Title : RUS Forced
Language : Russian
Default : No
Forced : Yes

Text #2
ID : 6
Format : UTF-8
Codec ID : S_TEXT/UTF8
Codec ID/Info : UTF-8 Plain Text
Duration : 2 h 2 min
Bit rate : 91 b/s
Count of elements : 1794
Stream size : 82.6 KiB (0%)
Title : RUS Full
Language : Russian
Default : No
Forced : No

Text #3
ID : 7
Format : UTF-8
Codec ID : S_TEXT/UTF8
Codec ID/Info : UTF-8 Plain Text
Duration : 2 h 1 min
Bit rate : 67 b/s
Count of elements : 2221
Stream size : 59.6 KiB (0%)
Title : Original
Language : English
Default : No
Forced : No

Menu
00:00:00.000 : en:Capítulo 01
00:07:33.202 : en:Capítulo 02
00:14:56.645 : en:Capítulo 03
00:23:43.255 : en:Capítulo 04
00:31:05.613 : en:Capítulo 05
00:38:43.070 : en:Capítulo 06
00:45:26.348 : en:Capítulo 07
00:53:27.329 : en:Capítulo 08
01:00:22.035 : en:Capítulo 09
01:07:29.253 : en:Capítulo 10
01:12:55.162 : en:Capítulo 11
01:22:12.344 : en:Capítulo 12
01:29:49.092 : en:Capítulo 13
01:36:47.802 : en:Capítulo 14
01:42:08.580 : en:Capítulo 15
01:53:55.912 : en:Capítulo 16
Cкриншот1 Плохие парни навсегда / Bad Boys for Life (2020) BDRip 1080p [HEVC] 10 bit от XuMuK
Загружается...
Cкриншот2 Плохие парни навсегда / Bad Boys for Life (2020) BDRip 1080p [HEVC] 10 bit от XuMuK
Загружается...
Cкриншот3 Плохие парни навсегда / Bad Boys for Life (2020) BDRip 1080p [HEVC] 10 bit от XuMuK
Загружается...
Cкриншот4 Плохие парни навсегда / Bad Boys for Life (2020) BDRip 1080p [HEVC] 10 bit от XuMuK
Загружается...
Сэмпл Торрент🧲 Магнет

Кнопки "Позвать в чате" и "Спасибо" доступны только зарегистрированным/авторизованным пользователям!

Раздача обновлена!
замена звука на лицензию

Файлы: 1
  • Bad.Boys_for_Life_2020_BDRip_1080p_[HEVC]_10 bit_by XuMuK.mkv   13.17 ГБ
Поблагодарили: 9
Brooklyn, D16T, diesel0000, iha777, LastSurviv0r, makss333, NoMaD, Nuclear70, Spartanec1308
XuMuK
1261013.17 ГБ

Добавление нового комментария

Добавление комментариев доступно только зарегистрированным/авторизованным пользователям.
Аватар XuMuK
  XuMuK  
замена звука на лицензию