Регистрация / Смена пароля

💬 Мини-чат

moonson: Alex302, ну, сообственно туда всем нашим врагам и дорога. Жалко только враг Жан-Поля застрял на 16 % и ни туда, и ни сюда 😄
Alex302: moonson, труп вашего врага растащило вороньё)
  • OldGamer
  • AntZ
  • brukvalub
  • garant3v
  • iona999
  • phillip
  • solohin1006
Отправка сообщений доступно только зарегистрированным/авторизованным пользователям.
Онлайн (за 10 мин.): 7

В пустыне смерти / Into the Badlands (2018-2019) [3 сезон] BDRip 1080p [HEVC] 10 bit от OldGamer (RG HEVC-CLUB)

HEVC
10 bit
Обложка В пустыне смерти / Into the Badlands (2018-2019) [3 сезон] BDRip 1080p [HEVC] 10 bit от OldGamer (RG HEVC-CLUB) Год: 2018-2019
Страна: США
Студия: Millar Gough Ink, Big Kid Pictures, Diversion Pictures, Double Feature Films, AMC Networks
Жанр: Боевик, Драма, Приключения
Продолжительность: 11:26:52

Режиссер: Пако Кабесас, Тоа Фрейзер, Дэвид Добкин
В ролях: Дэниэл Ву, Орла Брэйди, Эмили Бичем, Арамис Найт, Элли Иоаннидес, Ник Фрост, Шерман Огастас, Сара Болгер, Оливер Старк, Мадлен Манток

Описание: Санни делает все возможное, чтобы защитить своего маленького сына Генри после смерти Вейл. Когда у Санни начинается загадочная болезнь, Санни приходится объединиться с Баджи и вернуться обратно в пустыню. Там не прекращается война между Вдовой и Бароном Чо, от которой страдают все. Вдова лишилась поддержки Тильды и Вальдо, и поэтому ищет новых союзников, например, в лице Лидии и Натаниэля Муна – бывшего регента, который мечтает отомстить Санни за отрубленную руку. Однако в пустыне появляется загадочный лидер кочевого племени Пилигрим, который намерен восстановить Азру и начать новую эру. Перед лицом общего врага прежние недруги вынуждены объединиться, чтобы отстоять свою пустыню смерти.

Серии
Into.the.Badlands.S03E01.Enter.the.Phoenix
Into.the.Badlands.S03E02.Moon.Rises.Raven.Seeks
Into.the.Badlands.S03E03.Leopard.Snares.Rabbit
Into.the.Badlands.S03E04.Blind.Cannibal.Assassins
Into.the.Badlands.S03E05.Carry.Tiger.to.Mountain
Into.the.Badlands.S03E06.Black.Wind.Howls
Into.the.Badlands.S03E07.Dragonflys.Last.Dance
Into.the.Badlands.S03E08.Leopard.Catches.Cloud
Into.the.Badlands.S03E09.Chamber.of.the.Scorpion
Into.the.Badlands.S03E10.Ravens.Feather.Phoenix.Blood
Into.the.Badlands.S03E11.The.Boar.and.the.Butterfly
Into.the.Badlands.S03E12.Cobra.Fang.Panther.Claw
Into.the.Badlands.S03E13.Black.Lotus.White.Rose
Into.the.Badlands.S03E14.Curse.of.the.Red.Rain
Into.the.Badlands.S03E15.Requiem.for.the.Fallen
Into.the.Badlands.S03E16.Seven.Strike.as.One
КиноПоиск
7.453 7014
IMDb
8
39169


Исходник: Blu-Ray Remux 1080p (EPSiLON)
Видео: 1920x1080 (16:9), 4496-8710 Кбит/сек, HEVC (Main10@L.4.1@High)
Аудио1: AC3, 6 ch, 384 Kbps -
Русский, Многоголосый (TVShows)
Аудио2: AC3, 2 ch, 384 Kbps -
Русский, Многоголосый (LostFilm)
Аудио3: AC3, 6 ch, 640 Kbps -
English, Original
Субтитры: Отсутствуют

Как за пару секунд удалить ненужные аудиодорожки и субтитры (Внимание! После удаления вы не сможете поддержать раздачу)

Лог (x265 info)
x265 [info]: frame I: 264, Avg QP:18.11 kb/s: 25945.45
x265 [info]: frame P: 12627, Avg QP:19.58 kb/s: 17241.50
x265 [info]: frame B: 48957, Avg QP:21.50 kb/s: 6107.02
x265 [info]: Weighted P-Frames: Y:5.6% UV:4.4%
x265 [info]: Weighted B-Frames: Y:6.8% UV:5.4%
x265 [info]: consecutive B-frames: 5.1% 4.2% 22.8% 16.5% 8.3% 33.5% 2.9% 1.4% 2.0% 0.7% 0.9% 1.0% 0.3% 0.1% 0.4%
x265 [info]: encoded 61848 frames in 54294.75s (1.14 fps), 8464.94 kb/s, Avg QP:21.09
Медиаинфо
Формат : Matroska
Версия формата : Version 4
Размер файла : 2,97 Гбайт
Продолжительность : 43 м. 11 с.
Общий поток : 9 834 Кбит/сек
Название фильма : Into.the.Badlands.S03E11.The.Boar.and.the.Butterfly
Трек/Положение : 11
Трек/Всего : 16
Дата кодирования : UTC 2020-05-03 04:04:23
Программа кодирования : mkvmerge v46.0.0 ('No Deeper Escape') 64-bit
Библиотека кодирования : libebml v1.3.10 + libmatroska v1.5.2
Обложка : Yes
Attachments : small_cover.jpg / cover.jpg / cover_land.jpg / small_cover_land.jpg
IMDB : tt7843558
TMDB : tv/47450
TVDB : 289079

Видео
Идентификатор : 1
Формат : HEVC
Формат/Информация : High Efficiency Video Coding
Профиль формата : Main 10@L4@Main
Идентификатор кодека : V_MPEGH/ISO/HEVC
Продолжительность : 42 м. 59 с.
Битрейт : 8 466 Кбит/сек
Ширина : 1 920 пикселей
Высота : 1 080 пикселей
Соотношение сторон : 16:9
Режим частоты кадров : Постоянный
Частота кадров : 23,976 (24000/1001) кадра/сек
Цветовое пространство : YUV
Субдискретизация насыщенности : 4:2:0
Битовая глубина : 10 бит
Бит/(Пиксели*Кадры) : 0.170
Размер потока : 2,54 Гбайт (86%)
Заголовок : Into the Badlands S03E11 / Rip by OldGamer
Библиотека кодирования : x265 3.3+2-gd9a7411cc:[Windows][MSVC 1925][64 bit] 10bit
Настройки программы : cpuid=1111039 / frame-threads=3 / numa-pools=8 / wpp / no-pmode / no-pme / no-psnr / no-ssim / log-level=2 / input-csp=1 / input-res=1920x1080 / interlace=0 / total-frames=61848 / level-idc=0 / high-tier=1 / uhd-bd=0 / ref=5 / no-allow-non-conformance / no-repeat-headers / annexb / no-aud / no-hrd / info / hash=0 / no-temporal-layers / open-gop / min-keyint=23 / keyint=240 / gop-lookahead=0 / bframes=14 / b-adapt=2 / b-pyramid / bframe-bias=0 / rc-lookahead=60 / lookahead-slices=0 / scenecut=40 / hist-scenecut=0 / radl=0 / no-splice / no-intra-refresh / ctu=64 / min-cu-size=8 / rect / amp / max-tu-size=32 / tu-inter-depth=4 / tu-intra-depth=4 / limit-tu=1 / rdoq-level=2 / dynamic-rd=0.00 / no-ssim-rd / signhide / no-tskip / nr-intra=0 / nr-inter=0 / no-constrained-intra / no-strong-intra-smoothing / max-merge=5 / limit-refs=3 / no-limit-modes / me=3 / subme=7 / merange=57 / temporal-mvp / no-frame-dup / no-hme / weightp / weightb / no-analyze-src-pics / deblock=-3:-3 / no-sao / no-sao-non-deblock / rd=6 / selective-sao=0 / no-early-skip / rskip / no-fast-intra / no-tskip-fast / no-cu-lossless / b-intra / no-splitrd-skip / rdpenalty=0 / psy-rd=2.00 / psy-rdoq=1.00 / no-rd-refine / no-lossless / cbqpoffs=0 / crqpoffs=0 / rc=crf / crf=20.0 / qcomp=0.74 / qpstep=4 / stats-write=0 / stats-read=0 / ipratio=1.40 / pbratio=1.30 / aq-mode=4 / aq-strength=0.70 / no-cutree / zone-count=1 / zones: / start-frame=60875 / end-frame=61738 / qp=36 / no-strict-cbr / qg-size=32 / no-rc-grain / qpmax=69 / qpmin=0 / no-const-vbv / sar=1 / overscan=0 / videoformat=5 / range=0 / colorprim=2 / transfer=2 / colormatrix=2 / chromaloc=0 / display-window=0 / cll=0,0 / min-luma=0 / max-luma=1023 / log2-max-poc-lsb=8 / vui-timing-info / vui-hrd-info / slices=1 / no-opt-qp-pps / no-opt-ref-list-length-pps / no-multi-pass-opt-rps / scenecut-bias=0.00 / hist-threshold=0.01 / no-opt-cu-delta-qp / no-aq-motion / no-hdr10 / no-hdr10-opt / no-dhdr10-opt / no-idr-recovery-sei / analysis-reuse-level=0 / analysis-save-reuse-level=0 / analysis-load-reuse-level=0 / scale-factor=0 / refine-intra=0 / refine-inter=0 / refine-mv=1 / refine-ctu-distortion=0 / no-limit-sao / ctu-info=0 / no-lowpass-dct / refine-analysis-type=0 / copy-pic=1 / max-ausize-factor=1.0 / no-dynamic-refine / no-single-sei / no-hevc-aq / no-svt / no-field / qp-adaptation-range=1.00 / no-scenecut-aware-qpconformance-window-offsets / right=0 / bottom=0
Язык : English
Default : Да
Forced : Нет

Аудио #1
Идентификатор : 2
Формат : AC-3
Формат/Информация : Audio Coding 3
Коммерческое название : Dolby Digital
Идентификатор кодека : A_AC3
Продолжительность : 43 м. 11 с.
Вид битрейта : Постоянный
Битрейт : 384 Кбит/сек
Каналы : 6 каналов
Channel layout : L R C LFE Ls Rs
Частота : 48,0 КГц
Частота кадров : 31,250 кадров/сек (1536 SPF)
Метод сжатия : С потерями
Размер потока : 119 Мбайт (4%)
Заголовок : TVShows
Язык : Russian
Service kind : Complete Main
Default : Нет
Forced : Нет

Аудио #2
Идентификатор : 3
Формат : AC-3
Формат/Информация : Audio Coding 3
Коммерческое название : Dolby Digital
Идентификатор кодека : A_AC3
Продолжительность : 43 м. 1 с.
Вид битрейта : Постоянный
Битрейт : 384 Кбит/сек
Каналы : 2 канала
Channel layout : L R
Частота : 48,0 КГц
Частота кадров : 31,250 кадров/сек (1536 SPF)
Метод сжатия : С потерями
Размер потока : 118 Мбайт (4%)
Заголовок : LostFilm
Язык : Russian
Service kind : Complete Main
Default : Да
Forced : Нет

Аудио #3
Идентификатор : 4
Формат : AC-3
Формат/Информация : Audio Coding 3
Коммерческое название : Dolby Digital
Идентификатор кодека : A_AC3
Продолжительность : 42 м. 59 с.
Вид битрейта : Постоянный
Битрейт : 640 Кбит/сек
Каналы : 6 каналов
Channel layout : L R C LFE Ls Rs
Частота : 48,0 КГц
Частота кадров : 31,250 кадров/сек (1536 SPF)
Метод сжатия : С потерями
Размер потока : 197 Мбайт (6%)
Язык : English
Service kind : Complete Main
Default : Нет
Forced : Нет

Меню
00:00:00.000 : en:Chapter 1
00:03:25.705 : en:Chapter 2
00:04:01.616 : en:Chapter 3
00:10:24.791 : en:Chapter 4
00:18:25.604 : en:Chapter 5
00:27:16.176 : en:Chapter 6
00:37:38.590 : en:Chapter 7
00:42:21.873 : en:Chapter 8
Cкриншот1 В пустыне смерти / Into the Badlands (2018-2019) [3 сезон] BDRip 1080p [HEVC] 10 bit от OldGamer (RG HEVC-CLUB)
Загружается...
Cкриншот2 В пустыне смерти / Into the Badlands (2018-2019) [3 сезон] BDRip 1080p [HEVC] 10 bit от OldGamer (RG HEVC-CLUB)
Загружается...
Cкриншот3 В пустыне смерти / Into the Badlands (2018-2019) [3 сезон] BDRip 1080p [HEVC] 10 bit от OldGamer (RG HEVC-CLUB)
Загружается...
Cкриншот4 В пустыне смерти / Into the Badlands (2018-2019) [3 сезон] BDRip 1080p [HEVC] 10 bit от OldGamer (RG HEVC-CLUB)
Загружается...
Сэмпл Торрент🧲 Магнет

Кнопки "Позвать в чате" и "Спасибо" доступны только зарегистрированным/авторизованным пользователям!

Файлы: 16
  • В.Пустыне.Смерти.Into.The.Badlands.S03.BDRip-HEVC.1080p
    • Into.the.Badlands.S03E01.Enter.the.Phoenix.mkv   1.82 ГБ
    • Into.the.Badlands.S03E02.Moon.Rises.Raven.Seeks.mkv   1.82 ГБ
    • Into.the.Badlands.S03E03.Leopard.Snares.Rabbit.mkv   2.03 ГБ
    • Into.the.Badlands.S03E04.Blind.Cannibal.Assassins.mkv   2.51 ГБ
    • Into.the.Badlands.S03E05.Carry.Tiger.to.Mountain.mkv   1.8 ГБ
    • Into.the.Badlands.S03E06.Black.Wind.Howls.mkv   2.4 ГБ
    • Into.the.Badlands.S03E07.Dragonflys.Last.Dance.mkv   1.99 ГБ
    • Into.the.Badlands.S03E08.Leopard.Catches.Cloud.mkv   3.1 ГБ
    • Into.the.Badlands.S03E09.Chamber.of.the.Scorpion.mkv   2.68 ГБ
    • Into.the.Badlands.S03E10.Ravens.Feather.Phoenix.Blood.mkv   3.09 ГБ
    • Into.the.Badlands.S03E11.The.Boar.and.the.Butterfly.mkv   2.97 ГБ
    • Into.the.Badlands.S03E12.Cobra.Fang.Panther.Claw.mkv   3 ГБ
    • Into.the.Badlands.S03E13.Black.Lotus.White.Rose.mkv   2.42 ГБ
    • Into.the.Badlands.S03E14.Curse.of.the.Red.Rain.mkv   2.14 ГБ
    • Into.the.Badlands.S03E15.Requiem.for.the.Fallen.mkv   2.61 ГБ
    • Into.the.Badlands.S03E16.Seven.Strike.as.One.mkv   2.57 ГБ
Поблагодарили: 5
brukvalub, makss333, NoMaD, stigmata7, Херсонец
OldGamer
16253 (16)  38.95 ГБ

Добавление нового комментария

Добавление комментариев доступно только зарегистрированным/авторизованным пользователям.
Аватар Tony
  Tony  
Вдова рулит!😎