Регистрация / Смена пароля

💬 Мини-чат

moonson: Alex302, ну, сообственно туда всем нашим врагам и дорога. Жалко только враг Жан-Поля застрял на 16 % и ни туда, и ни сюда 😄
Alex302: moonson, труп вашего врага растащило вороньё)
  • OldGamer
  • AntZ
  • garant3v
  • igor302
  • phillip
  • Schumer
  • solohin1006
Отправка сообщений доступно только зарегистрированным/авторизованным пользователям.
Онлайн (за 10 мин.): 7

Удивительное путешествие доктора Дулиттла / Dolittle (2020) [iTunes] BDRip 1080p [HEVC] 10 bit от Мичман

HEVC
10 bit
Обложка Удивительное путешествие доктора Дулиттла / Dolittle (2020) [iTunes] BDRip 1080p [HEVC] 10 bit от Мичман Год: 2020
Страна: США, Китай, Великобритания
Студия: Universal Pictures, Dentsu, Perfect World Pictures
Жанр: Фэнтези, Комедия, Приключения, Семейный
Продолжительность: 01:41:23

Режиссер: Стивен Гейган
В ролях: Роберт Дауни мл., Антонио Бандерас, Майкл Шин, Джим Бродбент, Джесси Бакли, Гарри Коллетт, Эмма Томпсон, Рами Малек, Джон Сина, Кумэйл Нанджиани

Описание: Семь лет назад доктор Дулиттл, прославленный врач-ветеринар, живущий в викторианской Англии, потерял свою жену. Теперь он ведет затворнический образ жизни, скрывшись за высокими стенами своего поместья. Экзотические животные из его коллекции — его единственная компания.


Видео: 1920x1040, ~8723 Kbps
Аудио1: AC3, 6 ch, 384 Kbps -
Русский, Дублированный (iTunes)
Аудио2: AC3, 6 ch, 640 Kbps -
English, Original
Субтитры: Русские (форсированные, полные), английские (полные, SDH)

Как за пару секунд удалить ненужные аудиодорожки и субтитры (Внимание! После удаления вы не сможете поддержать раздачу)

Лог (x265 info)
x265 [info]: frame I: Avg QP:17.58 kb/s
x265 [info]: frame P: Avg QP:18.90 kb/s
x265 [info]: frame B: Avg QP:20.84 kb/s
Медиаинфо
Общее
Уникальный идентификатор : 235955625641985870770240445350823386576 (0xB1836686F98EC1AA0796644B7B40DDD0)
Полное имя : R:Dolittle (2020) BDRip 1080p [HEVC].mkv
Формат : Matroska
Версия формата : Version 4 / Version 2
Размер файла : 6,91 Гбайт
Продолжительность : 1 ч. 41 м.
Общий поток : 9750 Кбит/сек
Название фильма : Dolittle (2020)
Дата кодирования : UTC 2020-04-18 17:26:38
Программа кодирования : mkvmerge v43.0.0 ('The Quartermaster') 64-bit
Библиотека кодирования : libebml v1.3.10 + libmatroska v1.5.2
Обложка : Yes
Attachments : cover.jpg

Видео
Идентификатор : 1
Формат : HEVC
Формат/Информация : High Efficiency Video Coding
Профиль формата : Main 10@L4.1@High
Идентификатор кодека : V_MPEGH/ISO/HEVC
Продолжительность : 1 ч. 41 м.
Битрейт : 8723 Кбит/сек
Ширина : 1920 пикселей
Высота : 1040 пикселей
Соотношение сторон : 1,85:1
Режим частоты кадров : Постоянный
Частота кадров : 23,976 (23976/1000) кадра/сек
Частота кадров в оригинале : 23,976 (24000/1001) кадра/сек
Цветовое пространство : YUV
Субдискретизация насыщенности : 4:2:0
Битовая глубина : 10 бит
Бит/(Пиксели*Кадры) : 0.182
Размер потока : 6,18 Гбайт (89%)
Библиотека кодирования : x265 3.3+1-g554c887ac:[Windows][MSVC 1924][64 bit] 10bit
Настройки программы : cpuid=1111039 / frame-threads=3 / numa-pools=12 / wpp / no-pmode / no-pme / no-psnr / no-ssim / log-level=2 / input-csp=1 / input-res=1920x1040 / interlace=0 / total-frames=133735 / level-idc=41 / high-tier=1 / uhd-bd=0 / ref=5 / no-allow-non-conformance / no-repeat-headers / annexb / no-aud / no-hrd / info / hash=0 / no-temporal-layers / open-gop / min-keyint=23 / keyint=240 / gop-lookahead=0 / bframes=12 / b-adapt=2 / b-pyramid / bframe-bias=0 / rc-lookahead=60 / lookahead-slices=4 / scenecut=40 / hist-scenecut=0 / radl=0 / no-splice / no-intra-refresh / ctu=32 / min-cu-size=8 / rect / amp / max-tu-size=32 / tu-inter-depth=4 / tu-intra-depth=4 / limit-tu=1 / rdoq-level=2 / dynamic-rd=0.00 / no-ssim-rd / signhide / no-tskip / nr-intra=0 / nr-inter=0 / no-constrained-intra / no-strong-intra-smoothing / max-merge=4 / limit-refs=2 / limit-modes / me=3 / subme=7 / merange=57 / temporal-mvp / no-frame-dup / no-hme / weightp / weightb / no-analyze-src-pics / deblock=-3:-3 / no-sao / no-sao-non-deblock / rd=6 / selective-sao=0 / no-early-skip / no-rskip / no-fast-intra / no-tskip-fast / no-cu-lossless / no-b-intra / no-splitrd-skip / rdpenalty=0 / psy-rd=2.00 / psy-rdoq=1.00 / no-rd-refine / no-lossless / cbqpoffs=0 / crqpoffs=0 / rc=crf / crf=20.0 / qcomp=0.65 / qpstep=4 / stats-write=0 / stats-read=0 / vbv-maxrate=50000 / vbv-bufsize=50000 / vbv-init=0.9 / crf-max=0.0 / crf-min=0.0 / ipratio=1.40 / pbratio=1.30 / aq-mode=1 / aq-strength=1.00 / no-cutree / zone-count=0 / no-strict-cbr / qg-size=32 / no-rc-grain / qpmax=69 / qpmin=0 / no-const-vbv / sar=1 / overscan=0 / videoformat=5 / range=0 / colorprim=1 / transfer=1 / colormatrix=1 / chromaloc=0 / display-window=0 / cll=0,0 / min-luma=0 / max-luma=1023 / log2-max-poc-lsb=8 / vui-timing-info / vui-hrd-info / slices=1 / no-opt-qp-pps / no-opt-ref-list-length-pps / no-multi-pass-opt-rps / scenecut-bias=0.05 / hist-threshold=0.01 / no-opt-cu-delta-qp / no-aq-motion / no-hdr10 / no-hdr10-opt / no-dhdr10-opt / no-idr-recovery-sei / analysis-reuse-level=0 / analysis-save-reuse-level=0 / analysis-load-reuse-level=0 / scale-factor=0 / refine-intra=0 / refine-inter=0 / refine-mv=1 / refine-ctu-distortion=0 / no-limit-sao / ctu-info=0 / no-lowpass-dct / refine-analysis-type=0 / copy-pic=1 / max-ausize-factor=1.0 / no-dynamic-refine / no-single-sei / no-hevc-aq / no-svt / no-field / qp-adaptation-range=1.00 / no-scenecut-aware-qpconformance-window-offsets / right=0 / bottom=0
Default : Да
Forced : Нет
Цветовой диапазон : Limited
Основные цвета : BT.709
Характеристики трансфера : BT.709
Коэффициенты матрицы : BT.709

Аудио #1
Идентификатор : 2
Формат : AC-3
Формат/Информация : Audio Coding 3
Идентификатор кодека : A_AC3
Продолжительность : 1 ч. 41 м.
Вид битрейта : Постоянный
Битрейт : 384 Кбит/сек
Каналы : 6 каналов
Расположение каналов : Front: L C R, Side: L R, LFE
Частота : 48,0 КГц
Частота кадров : 31,250 кадров/сек (1536 SPF)
Битовая глубина : 16 бит
Метод сжатия : С потерями
Размер потока : 278 Мбайт (4%)
Заголовок : Dub - iTunes
Язык : Russian
ServiceKind/Strin : Complete Main
Default : Да
Forced : Нет

Аудио #2
Идентификатор : 3
Формат : AC-3
Формат/Информация : Audio Coding 3
Идентификатор кодека : A_AC3
Продолжительность : 1 ч. 41 м.
Вид битрейта : Постоянный
Битрейт : 640 Кбит/сек
Каналы : 6 каналов
Расположение каналов : Front: L C R, Side: L R, LFE
Частота : 48,0 КГц
Частота кадров : 31,250 кадров/сек (1536 SPF)
Битовая глубина : 16 бит
Метод сжатия : С потерями
Размер потока : 464 Мбайт (7%)
Заголовок : Original
Язык : English
ServiceKind/Strin : Complete Main
Default : Нет
Forced : Нет

Текст #1
Идентификатор : 4
Формат : UTF-8
Идентификатор кодека : S_TEXT/UTF8
Идентификатор кодека/Информация : UTF-8 Plain Text
Продолжительность : 4 м. 11 с.
Битрейт : 112 бит/сек
ElementCount : 72
Размер потока : 3,45 Кбайт (0%)
Заголовок : Forced
Язык : Russian
Default : Да
Forced : Нет

Текст #2
Идентификатор : 5
Формат : UTF-8
Идентификатор кодека : S_TEXT/UTF8
Идентификатор кодека/Информация : UTF-8 Plain Text
Продолжительность : 1 ч. 32 м.
Битрейт : 97 бит/сек
ElementCount : 1393
Размер потока : 66,0 Кбайт (0%)
Заголовок : Full
Язык : Russian
Default : Нет
Forced : Нет

Текст #3
Идентификатор : 6
Формат : UTF-8
Идентификатор кодека : S_TEXT/UTF8
Идентификатор кодека/Информация : UTF-8 Plain Text
Продолжительность : 1 ч. 32 м.
Битрейт : 62 бит/сек
ElementCount : 1498
Размер потока : 42,7 Кбайт (0%)
Заголовок : Full
Язык : English
Default : Нет
Forced : Нет

Текст #4
Идентификатор : 7
Формат : UTF-8
Идентификатор кодека : S_TEXT/UTF8
Идентификатор кодека/Информация : UTF-8 Plain Text
Продолжительность : 1 ч. 41 м.
Битрейт : 73 бит/сек
ElementCount : 2060
Размер потока : 54,8 Кбайт (0%)
Заголовок : SDH
Язык : English
Default : Нет
Forced : Нет

Меню
00:00:00.000 : en:Chapter 01
00:04:22.595 : en:Chapter 02
00:09:36.826 : en:Chapter 03
00:14:31.245 : en:Chapter 04
00:18:37.324 : en:Chapter 05
00:20:57.798 : en:Chapter 06
00:23:02.172 : en:Chapter 07
00:29:30.226 : en:Chapter 08
00:35:58.156 : en:Chapter 09
00:39:08.471 : en:Chapter 10
00:45:47.745 : en:Chapter 11
00:48:28.906 : en:Chapter 12
00:53:06.391 : en:Chapter 13
00:59:13.466 : en:Chapter 14
01:04:55.141 : en:Chapter 15
01:11:16.272 : en:Chapter 16
01:17:05.996 : en:Chapter 17
01:23:35.927 : en:Chapter 18
01:30:01.479 : en:Chapter 19
01:32:58.239 : en:Chapter 20
Cкриншот1 Удивительное путешествие доктора Дулиттла / Dolittle (2020) [iTunes] BDRip 1080p [HEVC] 10 bit от Мичман
Загружается...
Cкриншот2 Удивительное путешествие доктора Дулиттла / Dolittle (2020) [iTunes] BDRip 1080p [HEVC] 10 bit от Мичман
Загружается...
Cкриншот3 Удивительное путешествие доктора Дулиттла / Dolittle (2020) [iTunes] BDRip 1080p [HEVC] 10 bit от Мичман
Загружается...
Cкриншот4 Удивительное путешествие доктора Дулиттла / Dolittle (2020) [iTunes] BDRip 1080p [HEVC] 10 bit от Мичман
Загружается...
Сэмпл Торрент🧲 Магнет

Кнопки "Позвать в чате" и "Спасибо" доступны только зарегистрированным/авторизованным пользователям!

Файлы: 1
  • Dolittle (2020) BDRip 1080p [HEVC].mkv   6.91 ГБ
Поблагодарили: 10
and50, Brooklyn, cnn, crash, Diman, moonson, Muxa686, NoMaD, Papawalun, z_artem
OldGamer
171546.91 ГБ

Добавление нового комментария

Добавление комментариев доступно только зарегистрированным/авторизованным пользователям.
Аватар NoMaD
  NoMaD  
Макс молодец как всегда!!!