Регистрация / Смена пароля

💬 Мини-чат

(Сегодня) XuMuK: awesomeptaxa, handbrake устарел года 2 назад, vidcoder - однокнопочный конвертер
(Сегодня) ADVOKAT69: joker63, ✋
(Сегодня) OldGamer: joker63, ✋
(Сегодня) joker63: ADVOKAT69, Spartanec1308, OldGamer, ✋
(Сегодня) OldGamer: ADVOKAT69, ✋
(Сегодня) Spartanec1308: ADVOKAT69, ✋
(Сегодня) ADVOKAT69: OldGamer, Spartanec1308, ✋
(08.04.2020) Spartanec1308: joker63, ✋
(08.04.2020) joker63: HANNIBAL, ✋
(08.04.2020) joker63: Spartanec1308, ✋
(08.04.2020) Spartanec1308: ADVOKAT69, ✋
(08.04.2020) OldGamer: joker63, ✋
(08.04.2020) joker63: ADVOKAT69, OldGamer, ✋
(08.04.2020) OldGamer: rodina_45, эта раздача будет переделана, старую раздавать не будут
(08.04.2020) Laska020489: NoMaD, я всё равно не понимаю разницу рипованый и тех что выложены по одиночке, можно подумать что по одиночке не рипы, да какая разница? на мой взгляд что там что там - оба рипы. кодеки тоже одинаковые. так зачем ждать месяцами? фильм он и в африке фильм. мне вот проще скачать сразу уже готовую коллекцию. как по мне качество тоже отличное хоть и на видюхе.
(08.04.2020) awesomeptaxa: ADVOKAT69, спасибо
(08.04.2020) ADVOKAT69: awesomeptaxa, https://rutracker.org/forum/viewtopic.php?t=4733376
(08.04.2020) awesomeptaxa: т.е. пресеты
(08.04.2020) ADVOKAT69: joker63, Spartanec1308, ✋
(08.04.2020) awesomeptaxa: риперы, можно ли делать рип опираясь на стандартные настройки программы через которую рипую (handbrake, vidcoder), или нужно самому вручную выставлять настройки?
  • joker1001
  • masterok36
  • suy2030
  • torrentzulu
Отправка сообщений доступно только зарегистрированным/авторизованным пользователям.
Онлайн (за 10 мин.): 4

Я - легенда / I Am Legend (2007) [Alternative version] BDRip 1080p [HEVC] 10 bit от Cthulhu (RG KORSAR)

HEVC
10 bit
Обложка Я - легенда / I Am Legend (2007) [Alternative version] BDRip 1080p [HEVC] 10 bit от Cthulhu (RG KORSAR) Год: 2007
Страна: США
Студия: Warner Bros, Village Roadshow Pictures, Weed Road Pictures
Жанр: Фантастика, Ужасы, Триллер, Драма
Продолжительность: 01:43:54

Режиссер: Фрэнсис Лоуренс
В ролях: Уилл Смит, Алиси Брага, Чарли Тахэн, Салли Ричардсон-Уитфилд, Уиллоу Смит, Даррел Фостер, Эйприл Грэйс, Дэш Майок, Джоанна Нумата, Эбби, Кона, Сэмюэл Глен, Джеймс Майкл МакКейли, Марин Айрлэнд, Педро Можица, Энтони С. Мацца, Стив Кирбус, Калиста Хилл, Габриэлла Хилл, Мадлен Хилл, Эди Шарма

Описание: Адаптация одноименного романа Ричарда Мэтисона о неизвестном вирусе, унесшем жизни половины населения земного шара, а остальную половину превратившего в вампиров. Сюжет строится вокруг единственного уцелевшего человека с необъяснимым иммунитетом, ночами держащего бесконечную осаду упырей, а днем пытающегося найти противоядие и выяснить причины эпидемии.

КиноПоиск
7.851 262563
IMDb
7.2
661291


Видео: 1920x798, 7643 Kbps
Аудио1: AC3, 6 ch, 448 Kbps -
Русский, Дублированный (Мосфильм)
Аудио2: AC3, 6 ch, 640 Kbps -
Русский, Дублированный (Мосфильм) (Custom Sergesha)
Аудио3: AC3, 6 ch, 640 Kbps -
Русский, Многоголосый (Кравец)
Аудио4: AC3, 6 ch, 640 Kbps -
Русский, Многоголосый (Киномания)
Аудио5: AC3, 6 ch, 640 Kbps -
Русский, Многоголосый (Позитив-Мультимедиа)
Аудио6: AC3, 6 ch, 640 Kbps -
Русский, Двухголосый (Гланц и Королева)
Аудио7: AC3, 6 ch, 640 Kbps -
Русский, Одноголосый (SOLOD)
Аудио8: AC3, 6 ch, 640 Kbps -
Русский, Одноголосый (Чадов)
Аудио9: AC3, 6 ch, 640 Kbps -
Русский, Одноголосый (Сербин)
Аудио10: AC3, 6 ch, 640 Kbps -
Русский, Одноголосый (Гаврилов)
Аудио11: AC3, 6 ch, 448 Kbps -
Украинский, Дублированный
Аудио12: E-AC3, 6 ch, 1024 Kbps -
Английский, Оригинал
Субтитры: Русские, английские, украинские

Как за пару секунд удалить ненужные аудиодорожки и субтитры (Внимание! После удаления вы не сможете поддержать раздачу)

Медиаинфо
x265 [info]: frame I: 1276, Avg QP:16.78 kb/s: 27058.77
x265 [info]: frame P: 24728, Avg QP:18.16 kb/s: 15598.90
x265 [info]: frame B: 123469, Avg QP:20.36 kb/s: 5848.30
x265 [info]: consecutive B-frames: 6.1% 1.3% 2.0% 13.5% 16.9% 32.6% 9.2% 11.3% 2.2% 0.9% 0.4%

General
Unique ID : 143688339618752134766334173937712486365 (0x6C195E1A94E6DDAA2B1FFBA22783D7DD)
Complete name : H:\HEVC4\Я-легенда - I Am Legend (2007) Alt. version BDRip-HEVC 1080p - KORSAR.mkv
Format : Matroska
Format version : Version 4 / Version 2
File size : 11.1 GiB
Duration : 1 h 43 min
Overall bit rate : 15.3 Mb/s
Movie name : I Am Legend (2007) Alternative version_rip_by_Cthulhu
Encoded date : UTC 2020-03-16 17:17:09
Writing application : mkvmerge v37.0.0 ('Leave It') 64-bit
Writing library : libebml v1.3.9 + libmatroska v1.5.2
Cover : Yes
Attachments : cover9.jpg

Video
ID : 1
Format : HEVC
Format/Info : High Efficiency Video Coding
Format profile : Main 10@L4.1@High
Codec ID : V_MPEGH/ISO/HEVC
Duration : 1 h 43 min
Bit rate : 7 643 kb/s
Width : 1 920 pixels
Height : 798 pixels
Display aspect ratio : 2.40:1
Frame rate mode : Constant
Frame rate : 23.976 (24000/1001) FPS
Color space : YUV
Chroma subsampling : 4:2:0
Bit depth : 10 bits
Bits/(Pixel*Frame) : 0.208
Stream size : 5.55 GiB (50%)
Writing library : x265 3.3+2-gbe2d82093:[Windows][GCC 10.0.1][64 bit] 10bit
Encoding settings : cpuid=1111039 / frame-threads=4 / numa-pools=16 / wpp / no-pmode / no-pme / no-psnr / no-ssim / log-level=2 / input-csp=1 / input-res=1920x798 / interlace=0 / total-frames=149473 / level-idc=41 / high-tier=1 / uhd-bd=0 / ref=5 / no-allow-non-conformance / no-repeat-headers / annexb / no-aud / no-hrd / info / hash=0 / no-temporal-layers / open-gop / min-keyint=23 / keyint=240 / gop-lookahead=0 / bframes=10 / b-adapt=2 / b-pyramid / bframe-bias=0 / rc-lookahead=60 / lookahead-slices=1 / scenecut=40 / hist-scenecut=0 / radl=0 / no-splice / no-intra-refresh / ctu=32 / min-cu-size=8 / rect / amp / max-tu-size=32 / tu-inter-depth=4 / tu-intra-depth=4 / limit-tu=1 / rdoq-level=2 / dynamic-rd=0.00 / no-ssim-rd / signhide / no-tskip / nr-intra=0 / nr-inter=0 / no-constrained-intra / no-strong-intra-smoothing / max-merge=5 / limit-refs=3 / limit-modes / me=3 / subme=7 / merange=57 / temporal-mvp / no-frame-dup / hme / Level / merange / L0,L1,L2=16,32,57 / weightp / weightb / no-analyze-src-pics / deblock=-3:-3 / no-sao / no-sao-non-deblock / rd=6 / selective-sao=0 / no-early-skip / no-rskip / no-fast-intra / no-tskip-fast / no-cu-lossless / no-b-intra / no-splitrd-skip / rdpenalty=0 / psy-rd=2.00 / psy-rdoq=1.00 / no-rd-refine / no-lossless / cbqpoffs=0 / crqpoffs=0 / rc=crf / crf=19.7 / qcomp=0.62 / qpstep=4 / stats-write=0 / stats-read=0 / vbv-maxrate=50000 / vbv-bufsize=50000 / vbv-init=0.9 / crf-max=0.0 / crf-min=0.0 / ipratio=1.40 / pbratio=1.30 / aq-mode=1 / aq-strength=1.00 / no-cutree / zone-count=0 / no-strict-cbr / qg-size=32 / no-rc-grain / qpmax=69 / qpmin=0 / no-const-vbv / sar=1 / overscan=0 / videoformat=5 / range=0 / colorprim=1 / transfer=1 / colormatrix=1 / chromaloc=0 / display-window=0 / cll=0,0 / min-luma=0 / max-luma=1023 / log2-max-poc-lsb=8 / vui-timing-info / vui-hrd-info / slices=1 / no-opt-qp-pps / no-opt-ref-list-length-pps / no-multi-pass-opt-rps / scenecut-bias=0.05 / hist-threshold=0.01 / no-opt-cu-delta-qp / no-aq-motion / no-hdr10 / no-hdr10-opt / no-dhdr10-opt / no-idr-recovery-sei / analysis-reuse-level=0 / analysis-save-reuse-level=0 / analysis-load-reuse-level=0 / scale-factor=0 / refine-intra=0 / refine-inter=0 / refine-mv=1 / refine-ctu-distortion=0 / no-limit-sao / ctu-info=0 / no-lowpass-dct / refine-analysis-type=0 / copy-pic=1 / max-ausize-factor=1.0 / no-dynamic-refine / no-single-sei / no-hevc-aq / no-svt / no-field / qp-adaptation-range=1.00 / no-scenecut-aware-qpconformance-window-offsets / right=0 / bottom=0
Language : English
Default : Yes
Forced : No
Color range : Limited
Color primaries : BT.709
Transfer characteristics : BT.709
Matrix coefficients : BT.709

Audio #1
ID : 2
Format : AC-3
Format/Info : Audio Coding 3
Commercial name : Dolby Digital
Codec ID : A_AC3
Duration : 1 h 43 min
Bit rate mode : Constant
Bit rate : 448 kb/s
Channel(s) : 6 channels
Channel layout : L R C LFE Ls Rs
Sampling rate : 48.0 kHz
Frame rate : 31.250 FPS (1536 SPF)
Bit depth : 16 bits
Compression mode : Lossy
Stream size : 333 MiB (3%)
Title : Дубляж, Мосфильм
Language : Russian
Service kind : Complete Main
Default : Yes
Forced : No

Audio #2
ID : 3
Format : AC-3
Format/Info : Audio Coding 3
Commercial name : Dolby Digital
Codec ID : A_AC3
Duration : 1 h 43 min
Bit rate mode : Constant
Bit rate : 640 kb/s
Channel(s) : 6 channels
Channel layout : L R C LFE Ls Rs
Sampling rate : 48.0 kHz
Frame rate : 31.250 FPS (1536 SPF)
Bit depth : 16 bits
Compression mode : Lossy
Stream size : 476 MiB (4%)
Title : Дубляж, Мосфильм(Custom Sergesha)
Language : Russian
Service kind : Complete Main
Default : No
Forced : No

Audio #3
ID : 4
Format : AC-3
Format/Info : Audio Coding 3
Commercial name : Dolby Digital
Codec ID : A_AC3
Duration : 1 h 43 min
Bit rate mode : Constant
Bit rate : 640 kb/s
Channel(s) : 6 channels
Channel layout : L R C LFE Ls Rs
Sampling rate : 48.0 kHz
Frame rate : 31.250 FPS (1536 SPF)
Bit depth : 16 bits
Compression mode : Lossy
Stream size : 476 MiB (4%)
Title : MVO, Кравец
Language : Russian
Service kind : Complete Main
Default : No
Forced : No

Audio #4
ID : 5
Format : AC-3
Format/Info : Audio Coding 3
Commercial name : Dolby Digital
Codec ID : A_AC3
Duration : 1 h 43 min
Bit rate mode : Constant
Bit rate : 640 kb/s
Channel(s) : 6 channels
Channel layout : L R C LFE Ls Rs
Sampling rate : 48.0 kHz
Frame rate : 31.250 FPS (1536 SPF)
Bit depth : 16 bits
Compression mode : Lossy
Stream size : 476 MiB (4%)
Title : MVO, Киномания
Language : Russian
Service kind : Complete Main
Default : No
Forced : No

Audio #5
ID : 6
Format : AC-3
Format/Info : Audio Coding 3
Commercial name : Dolby Digital
Codec ID : A_AC3
Duration : 1 h 43 min
Bit rate mode : Constant
Bit rate : 640 kb/s
Channel(s) : 6 channels
Channel layout : L R C LFE Ls Rs
Sampling rate : 48.0 kHz
Frame rate : 31.250 FPS (1536 SPF)
Bit depth : 16 bits
Compression mode : Lossy
Stream size : 476 MiB (4%)
Title : MVO, Позитив-Мультимедиа
Language : Russian
Service kind : Complete Main
Default : No
Forced : No

Audio #6
ID : 7
Format : AC-3
Format/Info : Audio Coding 3
Commercial name : Dolby Digital
Codec ID : A_AC3
Duration : 1 h 43 min
Bit rate mode : Constant
Bit rate : 640 kb/s
Channel(s) : 6 channels
Channel layout : L R C LFE Ls Rs
Sampling rate : 48.0 kHz
Frame rate : 31.250 FPS (1536 SPF)
Bit depth : 16 bits
Compression mode : Lossy
Stream size : 476 MiB (4%)
Title : DVO, Гланц и Королева
Language : Russian
Service kind : Complete Main
Default : No
Forced : No

Audio #7
ID : 8
Format : AC-3
Format/Info : Audio Coding 3
Commercial name : Dolby Digital
Codec ID : A_AC3
Duration : 1 h 43 min
Bit rate mode : Constant
Bit rate : 640 kb/s
Channel(s) : 6 channels
Channel layout : L R C LFE Ls Rs
Sampling rate : 48.0 kHz
Frame rate : 31.250 FPS (1536 SPF)
Bit depth : 16 bits
Compression mode : Lossy
Stream size : 476 MiB (4%)
Title : VO, Е. Солодухин (Solod)
Language : Russian
Service kind : Complete Main
Default : No
Forced : No

Audio #8
ID : 9
Format : AC-3
Format/Info : Audio Coding 3
Commercial name : Dolby Digital
Codec ID : A_AC3
Duration : 1 h 43 min
Bit rate mode : Constant
Bit rate : 640 kb/s
Channel(s) : 6 channels
Channel layout : L R C LFE Ls Rs
Sampling rate : 48.0 kHz
Frame rate : 31.250 FPS (1536 SPF)
Bit depth : 16 bits
Compression mode : Lossy
Stream size : 476 MiB (4%)
Title : AVO, М.Чадов
Language : Russian
Service kind : Complete Main
Default : No
Forced : No

Audio #9
ID : 10
Format : AC-3
Format/Info : Audio Coding 3
Commercial name : Dolby Digital
Codec ID : A_AC3
Duration : 1 h 43 min
Bit rate mode : Constant
Bit rate : 640 kb/s
Channel(s) : 6 channels
Channel layout : L R C LFE Ls Rs
Sampling rate : 48.0 kHz
Frame rate : 31.250 FPS (1536 SPF)
Bit depth : 16 bits
Compression mode : Lossy
Stream size : 476 MiB (4%)
Title : AVO, Ю.Сербин
Language : Russian
Service kind : Complete Main
Default : No
Forced : No

Audio #10
ID : 11
Format : AC-3
Format/Info : Audio Coding 3
Commercial name : Dolby Digital
Codec ID : A_AC3
Duration : 1 h 43 min
Bit rate mode : Constant
Bit rate : 640 kb/s
Channel(s) : 6 channels
Channel layout : L R C LFE Ls Rs
Sampling rate : 48.0 kHz
Frame rate : 31.250 FPS (1536 SPF)
Bit depth : 16 bits
Compression mode : Lossy
Stream size : 476 MiB (4%)
Title : AVO, А.Гаврилов
Language : Russian
Service kind : Complete Main
Default : No
Forced : No

Audio #11
ID : 12
Format : AC-3
Format/Info : Audio Coding 3
Commercial name : Dolby Digital
Codec ID : A_AC3
Duration : 1 h 43 min
Bit rate mode : Constant
Bit rate : 448 kb/s
Channel(s) : 6 channels
Channel layout : L R C LFE Ls Rs
Sampling rate : 48.0 kHz
Frame rate : 31.250 FPS (1536 SPF)
Bit depth : 16 bits
Compression mode : Lossy
Stream size : 333 MiB (3%)
Title : Дубляж
Language : Ukrainian
Service kind : Complete Main
Default : No
Forced : No

Audio #12
ID : 13
Format : E-AC-3
Format/Info : Enhanced AC-3
Commercial name : Dolby Digital Plus
Codec ID : A_EAC3
Duration : 1 h 43 min
Bit rate mode : Constant
Bit rate : 1 024 kb/s
Channel(s) : 6 channels
Channel layout : L R C LFE Ls Rs
Sampling rate : 48.0 kHz
Frame rate : 31.250 FPS (1536 SPF)
Compression mode : Lossy
Stream size : 761 MiB (7%)
Language : English
Service kind : Complete Main
Default : No
Forced : No

Text #1
ID : 14
Format : UTF-8
Codec ID : S_TEXT/UTF8
Codec ID/Info : UTF-8 Plain Text
Duration : 1 s 335 ms
Bit rate : 257 b/s
Count of elements : 1
Stream size : 43.0 Bytes (0%)
Title : Forced
Language : Russian
Default : No
Forced : No

Text #2
ID : 15
Format : UTF-8
Codec ID : S_TEXT/UTF8
Codec ID/Info : UTF-8 Plain Text
Duration : 1 h 36 min
Bit rate : 54 b/s
Count of elements : 700
Stream size : 38.4 KiB (0%)
Language : Russian
Default : No
Forced : No

Text #3
ID : 16
Format : UTF-8
Codec ID : S_TEXT/UTF8
Codec ID/Info : UTF-8 Plain Text
Duration : 1 h 36 min
Bit rate : 2 b/s
Count of elements : 34
Stream size : 1.62 KiB (0%)
Title : Forced
Language : Ukrainian
Default : No
Forced : No

Text #4
ID : 17
Format : UTF-8
Codec ID : S_TEXT/UTF8
Codec ID/Info : UTF-8 Plain Text
Duration : 1 h 43 min
Bit rate : 46 b/s
Count of elements : 669
Stream size : 35.4 KiB (0%)
Language : Ukrainian
Default : No
Forced : No

Text #5
ID : 18
Format : UTF-8
Codec ID : S_TEXT/UTF8
Codec ID/Info : UTF-8 Plain Text
Duration : 1 h 43 min
Bit rate : 32 b/s
Count of elements : 756
Stream size : 24.6 KiB (0%)
Language : English
Default : No
Forced : No

Menu
00:00:00.000 : :Miracle Cure
00:02:13.133 : :Fellow Hunters
00:07:58.478 : :In for the Night
00:12:09.729 : :Ground Zero
00:15:17.750 : :Animal Traits
00:18:22.267 : :Shop and Forage
00:23:24.569 : :Seaport at Midday
00:26:44.269 : :Race to the Light
00:31:51.409 : :Mutant Trap
00:34:17.722 : :Test Subject
00:38:06.450 : :Fishing in the Dark
00:39:36.707 : :Evacuation
00:44:24.662 : :Man Trap
00:49:12.449 : :Dogs of Sundown
00:54:16.086 : :Farewell to a Friend
00:57:15.431 : :Please Say Hello
01:00:02.098 : :Swarm of the Infected
01:03:02.111 : :Family Tragedy
01:04:51.220 : :Anna and Ethan
01:09:39.175 : :Verbatim
01:11:42.464 : :Marley's Namesake
01:15:33.862 : :God Told Me
01:19:07.743 : :Home Invasion
01:21:43.899 : :I Can Save You
01:26:44.532 : :Exit Strategy
01:28:56.998 : :His Legend
01:34:28.162 : :End Credits
Cкриншот1 Я - легенда / I Am Legend (2007) [Alternative version] BDRip 1080p [HEVC] 10 bit от Cthulhu (RG KORSAR)
Загружается...
Cкриншот2 Я - легенда / I Am Legend (2007) [Alternative version] BDRip 1080p [HEVC] 10 bit от Cthulhu (RG KORSAR)
Загружается...
Cкриншот3 Я - легенда / I Am Legend (2007) [Alternative version] BDRip 1080p [HEVC] 10 bit от Cthulhu (RG KORSAR)
Загружается...
Cкриншот4 Я - легенда / I Am Legend (2007) [Alternative version] BDRip 1080p [HEVC] 10 bit от Cthulhu (RG KORSAR)
Загружается...
Релиз-группа: KORSAR
Сэмпл Торрент🧲 Магнет

Кнопки "Позвать в чате" и "Спасибо" доступны только зарегистрированным/авторизованным пользователям!

Файлы: 1
  • Я-легенда - I Am Legend (2007) Alt. version BDRip-HEVC 1080p - KORSAR.mkv   11.13 ГБ
Поблагодарили: 12
aquarius, Diman, FireIce, Kilop77, Laska020489, makss333, maximka, MIGRANT, NoMaD, sabretooth, sdell, VadimM
24.03.2020  21:20:28 Cthulhu
5 144 5 0 11.13 ГБ

Добавление нового комментария

Добавление комментариев доступно только зарегистрированным/авторизованным пользователям.
Аватар Laska020489
  Laska020489  02.04.2020  14:46:35
NoMaD писал(а):
много. И тут не указано что дубляж со вставками Киномании))) Мне лично больше нравится театральная версия
дубляж со вставками Киномании - спасибо
Аватар NoMaD
  NoMaD  02.04.2020  06:20:14
Laska020489 писал(а):
а много ли тех кто знает что данный фильм есть в двух версиях с двумя разными концовками))
много. И тут не указано что дубляж со вставками Киномании))) Мне лично больше нравится театральная версия
Аватар Laska020489
  Laska020489  31.03.2020  07:45:08
а много ли тех кто знает что данный фильм есть в двух версиях с двумя разными концовками))
Аватар Laska020489
  Laska020489  26.03.2020  06:41:30
локальные пиры с орен. обл. на ростике - отдельное спасибо! скачал за 3 минуты со скоростью 58 мегобайт
Аватар Cthulhu
  Cthulhu  24.03.2020  21:59:39
Custom дубляж сделан из оригинальной TrueHD дорожки и дублированной лицензионной дорожки путём замены всех участков с английской речью, отголосками и эхом на аналогичные с дублированной дорожки во всех каналах и прочими редакторскими правками. Спасибо Sergesha за работу над дорожкой, а также всем участникам проекта RussianDub HD.