Регистрация / Смена пароля

💬 Мини-чат

(Сегодня) XuMuK: awesomeptaxa, handbrake устарел года 2 назад, vidcoder - однокнопочный конвертер
(Сегодня) ADVOKAT69: joker63, ✋
(Сегодня) OldGamer: joker63, ✋
(Сегодня) joker63: ADVOKAT69, Spartanec1308, OldGamer, ✋
(Сегодня) OldGamer: ADVOKAT69, ✋
(Сегодня) Spartanec1308: ADVOKAT69, ✋
(Сегодня) ADVOKAT69: OldGamer, Spartanec1308, ✋
(08.04.2020) Spartanec1308: joker63, ✋
(08.04.2020) joker63: HANNIBAL, ✋
(08.04.2020) joker63: Spartanec1308, ✋
(08.04.2020) Spartanec1308: ADVOKAT69, ✋
(08.04.2020) OldGamer: joker63, ✋
(08.04.2020) joker63: ADVOKAT69, OldGamer, ✋
(08.04.2020) OldGamer: rodina_45, эта раздача будет переделана, старую раздавать не будут
(08.04.2020) Laska020489: NoMaD, я всё равно не понимаю разницу рипованый и тех что выложены по одиночке, можно подумать что по одиночке не рипы, да какая разница? на мой взгляд что там что там - оба рипы. кодеки тоже одинаковые. так зачем ждать месяцами? фильм он и в африке фильм. мне вот проще скачать сразу уже готовую коллекцию. как по мне качество тоже отличное хоть и на видюхе.
(08.04.2020) awesomeptaxa: ADVOKAT69, спасибо
(08.04.2020) ADVOKAT69: awesomeptaxa, https://rutracker.org/forum/viewtopic.php?t=4733376
(08.04.2020) awesomeptaxa: т.е. пресеты
(08.04.2020) ADVOKAT69: joker63, Spartanec1308, ✋
(08.04.2020) awesomeptaxa: риперы, можно ли делать рип опираясь на стандартные настройки программы через которую рипую (handbrake, vidcoder), или нужно самому вручную выставлять настройки?
  • OldGamer
  • CarbitM
  • demons22
  • ivan_1965
  • Laska020489
  • SAHA55
  • silverdragon
Отправка сообщений доступно только зарегистрированным/авторизованным пользователям.
Онлайн (за 10 мин.): 7

Приключения Шерлока Холмса и доктора Ватсона: Собака Баскервилей (1981) BDRip 1080p [HEVC] 10 bit от ADVOKAT69

HEVC
10 bit
Обложка Приключения Шерлока Холмса и доктора Ватсона: Собака Баскервилей (1981) BDRip 1080p [HEVC] 10 bit от ADVOKAT69 Год: 1981
Страна: СССР
Студия: Ленфильм
Жанр: Детектив
Продолжительность: 2 серии - 02:32:25

Режиссер: Игорь Масленников
В ролях: Василий Ливанов, Виталий Соломин, Рина Зеленая, Ирина Купченко, Никита Михалков, Алла Демидова, Светлана Крючкова, Александр Адабашьян, Борислав Брондуков, Евгений Стеблов

Описание: Труп Чарльза Баскервиля обнаруживают неподалеку от его родового поместья. Выражение нечеловеческого ужаса на лице покойника и следы крупной собаки поблизости заставляют вспомнить старинную легенду о проклятии, тяготеющем над родом Баскервилей. Шерлоку Холмсу предстоит докопаться до истины...

КиноПоиск
8.599 129677
IMDb
8.7
4963


Исходник: Blu-Ray
Видео: 1496x1080, 7255 Kbps - 7068 Kbps
Аудио: DTS, 6 ch, 1509 Kbps -
Русский, Оригинал
Субтитры: нет

Медиаинфо
Общее
Уникальный идентификатор : 254611984154125842383124258005027743578 (0xBF8C7C04CC8F9718919E23642009675A)
Полное имя : I:\КИНО HEVC\Собака Баскервилей\1.серия.mkv
Формат : Matroska
Версия формата : Version 4
Размер файла : 4,71 Гбайт
Продолжительность : 1 ч. 16 м.
Общий поток : 8766 Кбит/сек
Дата кодирования : UTC 2020-03-19 13:26:38
Программа кодирования : mkvmerge v9.2.0 ('Photograph') 64bit
Библиотека кодирования : libebml v1.3.3 + libmatroska v1.4.4

Видео
Идентификатор : 1
Формат : HEVC
Формат/Информация : High Efficiency Video Coding
Профиль формата : Main 10@L4.1@Main
Идентификатор кодека : V_MPEGH/ISO/HEVC
Продолжительность : 1 ч. 16 м.
Битрейт : 7255 Кбит/сек
Ширина : 1496 пикселей
Высота : 1080 пикселей
Соотношение сторон : 1,385
Режим частоты кадров : Постоянный
Частота кадров : 23,976 (24000/1001) кадра/сек
Цветовое пространство : YUV
Субдискретизация насыщенности : 4:2:0
Битовая глубина : 10 бит
Бит/(Пиксели*Кадры) : 0.187
Размер потока : 3,90 Гбайт (83%)
Библиотека кодирования : x265 1.5+88-0e89af0781ee:[Windows][GCC 4.8.2][64 bit] 16bpp
Настройки программы : wpp / ctu=64 / min-cu-size=8 / max-tu-size=32 / tu-intra-depth=1 / tu-inter-depth=1 / me=2 / subme=7 / merange=57 / no-rect / no-amp / max-merge=3 / temporal-mvp / no-early-skip / rdpenalty=0 / no-tskip / no-tskip-fast / strong-intra-smoothing / no-lossless / no-cu-lossless / no-constrained-intra / no-fast-intra / open-gop / no-temporal-layers / interlace=0 / keyint=240 / min-keyint=23 / scenecut=40 / rc-lookahead=30 / bframes=5 / bframe-bias=0 / b-adapt=2 / ref=5 / no-weightp / no-weightb / aq-mode=1 / aq-strength=1.00 / cbqpoffs=0 / crqpoffs=0 / rd=4 / psy-rd=0.30 / psy-rdoq=1.00 / signhide / lft / sao / no-sao-non-deblock / b-pyramid / cutree / rc=crf / crf=18.0 / qcomp=0.60 / qpmin=0 / qpmax=51 / qpstep=4 / vbv-maxrate=20000 / vbv-bufsize=20000 / crf-max=0.0 / ipratio=1.40 / pbratio=1.30
Default : Да
Forced : Нет
Цветовой диапазон : Full

Аудио
Идентификатор : 2
Формат : DTS
Формат/Информация : Digital Theater Systems
Идентификатор кодека : A_DTS
Продолжительность : 1 ч. 16 м.
Вид битрейта : Постоянный
Битрейт : 1509 Кбит/сек
Каналы : 6 каналов
ChannelLayout : C L R Ls Rs LFE
Частота : 48,0 КГц
Частота кадров : 93,750 кадра/сек (512 SPF)
Битовая глубина : 24 бит
Метод сжатия : С потерями
Размер потока : 830 Мбайт (17%)
Default : Да
Forced : Нет

Меню
00:00:00.000 : en:Chapter 1
00:05:38.087 : en:Chapter 2
00:12:47.767 : en:Chapter 3
00:19:43.807 : en:Chapter 4
00:25:50.257 : en:Chapter 5
00:36:35.651 : en:Chapter 6
00:42:28.295 : en:Chapter 7
00:49:08.236 : en:Chapter 8
00:53:26.119 : en:Chapter 9
01:00:04.392 : en:Chapter 10
01:03:24.675 : en:Chapter 11
01:07:25.666 : en:Chapter 12
Cкриншот1 Приключения Шерлока Холмса и доктора Ватсона: Собака Баскервилей (1981) BDRip 1080p [HEVC] 10 bit от ADVOKAT69
Загружается...
Cкриншот2 Приключения Шерлока Холмса и доктора Ватсона: Собака Баскервилей (1981) BDRip 1080p [HEVC] 10 bit от ADVOKAT69
Загружается...
Cкриншот3 Приключения Шерлока Холмса и доктора Ватсона: Собака Баскервилей (1981) BDRip 1080p [HEVC] 10 bit от ADVOKAT69
Загружается...
Cкриншот4 Приключения Шерлока Холмса и доктора Ватсона: Собака Баскервилей (1981) BDRip 1080p [HEVC] 10 bit от ADVOKAT69
Загружается...
Сэмпл Торрент🧲 Магнет

Кнопки "Позвать в чате" и "Спасибо" доступны только зарегистрированным/авторизованным пользователям!

Файлы: 2
  • Собака Баскервилей
    • 1.серия.mkv   4.71 ГБ
    • 2.серия.mkv   5.44 ГБ
Поблагодарили: 13
and50, animen67, aquarius, bad999, cdmitry, cnn, kacznelbogene, Kilop77, Kiran, makss333, mat, stas67, Undervest
23.03.2020  11:36:00 ADVOKAT69
3 74 4 1 (2)  10.15 ГБ

Добавление нового комментария

Добавление комментариев доступно только зарегистрированным/авторизованным пользователям.
Аватар vash1
  vash1  04.04.2020  17:52:50
- x265 1.5 когда уже существует версия 3.3
- во второй серии дорога DTS-HD MA @ 3300 kbps - зачем??
-------------

как вообще этот релиз делался?
Аватар ADVOKAT69
  ADVOKAT69  25.03.2020  09:41:27
cnn писал(а):
спасибо,если можно залейте весь сериал Приключения Шерлока Холмса и доктора Ватсона
на блюрее выходил только Собака Баскервилей!
Аватар cnn
  cnn  24.03.2020  03:11:48
спасибо,если можно залейте весь сериал Приключения Шерлока Холмса и доктора Ватсона