Регистрация / Смена пароля

💬 Мини-чат

(Сегодня) XuMuK: awesomeptaxa, handbrake устарел года 2 назад, vidcoder - однокнопочный конвертер
(Сегодня) ADVOKAT69: joker63, ✋
(Сегодня) OldGamer: joker63, ✋
(Сегодня) joker63: ADVOKAT69, Spartanec1308, OldGamer, ✋
(Сегодня) OldGamer: ADVOKAT69, ✋
(Сегодня) Spartanec1308: ADVOKAT69, ✋
(Сегодня) ADVOKAT69: OldGamer, Spartanec1308, ✋
(08.04.2020) Spartanec1308: joker63, ✋
(08.04.2020) joker63: HANNIBAL, ✋
(08.04.2020) joker63: Spartanec1308, ✋
(08.04.2020) Spartanec1308: ADVOKAT69, ✋
(08.04.2020) OldGamer: joker63, ✋
(08.04.2020) joker63: ADVOKAT69, OldGamer, ✋
(08.04.2020) OldGamer: rodina_45, эта раздача будет переделана, старую раздавать не будут
(08.04.2020) Laska020489: NoMaD, я всё равно не понимаю разницу рипованый и тех что выложены по одиночке, можно подумать что по одиночке не рипы, да какая разница? на мой взгляд что там что там - оба рипы. кодеки тоже одинаковые. так зачем ждать месяцами? фильм он и в африке фильм. мне вот проще скачать сразу уже готовую коллекцию. как по мне качество тоже отличное хоть и на видюхе.
(08.04.2020) awesomeptaxa: ADVOKAT69, спасибо
(08.04.2020) ADVOKAT69: awesomeptaxa, https://rutracker.org/forum/viewtopic.php?t=4733376
(08.04.2020) awesomeptaxa: т.е. пресеты
(08.04.2020) ADVOKAT69: joker63, Spartanec1308, ✋
(08.04.2020) awesomeptaxa: риперы, можно ли делать рип опираясь на стандартные настройки программы через которую рипую (handbrake, vidcoder), или нужно самому вручную выставлять настройки?
  • OldGamer
  • CarbitM
  • DayLight
  • ivan_1965
  • joker1001
  • Laska020489
  • SAHA55
  • Vanya Vetrov
  • VovChik74
  • yri150461
Отправка сообщений доступно только зарегистрированным/авторизованным пользователям.
Онлайн (за 10 мин.): 10

Буйнопомешанные / Псих в тюряге / Stir Crazy (1980) BDRip 1080p [HEVC] 10 bit от Cthulhu (RG KORSAR)

HEVC
10 bit
Обложка Буйнопомешанные / Псих в тюряге / Stir Crazy (1980) BDRip 1080p [HEVC] 10 bit от Cthulhu (RG KORSAR) Год: 1980
Страна: США
Студия: Columbia Pictures Corporation
Жанр: Комедия, Криминал
Продолжительность: 01:51:03

Режиссер: Сидни Пуатье
В ролях: Джин Уайлдер, Ричард Прайор, Георг Стэнфорд Браун, ДжоБет Уильямс, Мигель Анхель Суарес, Крэйг Т. Нельсон, Бэрри Корбин, Чарльз Уэлдон, Николас Костер, Джоэл Брукс

Описание: Приятели, Скип и Харри, по ложному обвинению в ограблении банка были приговорены к солидному сроку заключения. У друзей возникают большие трудности с адаптацией к непривычным условиям тюрьмы. И так бы они и чувствовали себя изгоями и неудачниками среди остальных заключённых, но однажды их охраннику приходит блестящая идея, как использовать Скипа и его таланты на предстоящем тюремном родео. Харри будет на подхвате.

КиноПоиск
6.634 706
IMDb
6.8
23932


Видео: 1920x1040, 13.3 Mbps
Аудио1: AC3, 2 ch, 192 Kbps -
Русский, Многоголосый (Первый канал)
Аудио2: AC3, 2 ch, 192 Kbps -
Русский, Двухголосый (НТВ)
Аудио3: AC3, 2 ch, 256 Kbps -
Русский, Одноголосый (Михалев)
Аудио4: AC3, 2 ch, 224 Kbps -
Русский, Одноголосый (Товбин)
Аудио5: AC3, 2 ch, 192 Kbps -
Русский, Одноголосый (Иванов)
Аудио6: AC3, 2 ch, 224 Kbps -
Русский, Одноголосый (Action Studio)
Аудио7: AC3, 2 ch, 192 Kbps -
Русский, Одноголосый
Аудио8: AC3, 2 ch, 224 Kbps -
Украинский, Многоголосый (Enter)
Аудио9: AC3, 2 ch, 256 Kbps -
Английский, Оригинал
Субтитры: Английские

Как за пару секунд удалить ненужные аудиодорожки и субтитры (Внимание! После удаления вы не сможете поддержать раздачу)

Медиаинфо
x265 [info]: frame I: 1661, Avg QP:18.34 kb/s: 37751.27
x265 [info]: frame P: 39489, Avg QP:19.84 kb/s: 27134.73
x265 [info]: frame B: 118617, Avg QP:21.79 kb/s: 8573.04
x265 [info]: consecutive B-frames: 4.9% 4.1% 6.7% 57.7% 9.8% 15.4% 0.8% 0.4% 0.1%

General
Unique ID : 274161395517829685187152691646705506919 (0xCE41906A514F41482DA0194BFF391A67)
Complete name : H:\HEVC4\Буйнопомешанные - Stir Crazy (1980) BDRip-HEVC 1080p - KORSAR.mkv
Format : Matroska
Format version : Version 4 / Version 2
File size : 11.8 GiB
Duration : 1 h 51 min
Overall bit rate : 15.3 Mb/s
Movie name : Stir Crazy (1980)_rip_by_Cthulhu
Encoded date : UTC 2020-02-19 17:49:29
Writing application : mkvmerge v37.0.0 ('Leave It') 64-bit
Writing library : libebml v1.3.9 + libmatroska v1.5.2
Cover : Yes
Attachments : cover2.jpg

Video
ID : 1
Format : HEVC
Format/Info : High Efficiency Video Coding
Format profile : Main 10@L4.1@High
Codec ID : V_MPEGH/ISO/HEVC
Duration : 1 h 51 min
Bit rate : 13.3 Mb/s
Width : 1 920 pixels
Height : 1 040 pixels
Display aspect ratio : 1.85:1
Frame rate mode : Constant
Frame rate : 23.976 (24000/1001) FPS
Color space : YUV
Chroma subsampling : 4:2:0
Bit depth : 10 bits
Bits/(Pixel*Frame) : 0.278
Stream size : 10.3 GiB (87%)
Writing library : x265 3.2.1+3-b4b2ecac21f6:[Windows][MSVC 1900][64 bit] 10bit
Encoding settings : cpuid=1111039 / frame-threads=4 / numa-pools=16 / wpp / no-pmode / no-pme / no-psnr / no-ssim / log-level=2 / input-csp=1 / input-res=1920x1040 / interlace=0 / total-frames=159767 / level-idc=41 / high-tier=1 / uhd-bd=0 / ref=5 / no-allow-non-conformance / no-repeat-headers / annexb / no-aud / no-hrd / info / hash=0 / no-temporal-layers / open-gop / min-keyint=23 / keyint=240 / gop-lookahead=0 / bframes=8 / b-adapt=2 / b-pyramid / bframe-bias=0 / rc-lookahead=60 / lookahead-slices=1 / scenecut=40 / radl=0 / no-splice / no-intra-refresh / ctu=32 / min-cu-size=8 / rect / amp / max-tu-size=32 / tu-inter-depth=4 / tu-intra-depth=4 / limit-tu=1 / rdoq-level=2 / dynamic-rd=0.00 / no-ssim-rd / signhide / no-tskip / nr-intra=0 / nr-inter=0 / no-constrained-intra / no-strong-intra-smoothing / max-merge=5 / limit-refs=3 / limit-modes / me=3 / subme=7 / merange=57 / temporal-mvp / no-hme / weightp / weightb / no-analyze-src-pics / deblock=-2:-2 / no-sao / no-sao-non-deblock / rd=6 / selective-sao=0 / no-early-skip / no-rskip / no-fast-intra / no-tskip-fast / no-cu-lossless / no-b-intra / no-splitrd-skip / rdpenalty=0 / psy-rd=1.80 / psy-rdoq=1.00 / no-rd-refine / no-lossless / cbqpoffs=0 / crqpoffs=0 / rc=crf / crf=19.0 / qcomp=0.67 / qpstep=4 / stats-write=0 / stats-read=0 / vbv-maxrate=50000 / vbv-bufsize=50000 / vbv-init=0.9 / crf-max=0.0 / crf-min=0.0 / ipratio=1.40 / pbratio=1.30 / aq-mode=4 / aq-strength=0.70 / no-cutree / zone-count=0 / no-strict-cbr / qg-size=32 / no-rc-grain / qpmax=69 / qpmin=0 / no-const-vbv / sar=1 / overscan=0 / videoformat=5 / range=0 / colorprim=1 / transfer=1 / colormatrix=1 / chromaloc=0 / display-window=0 / cll=0,0 / min-luma=0 / max-luma=1023 / log2-max-poc-lsb=8 / vui-timing-info / vui-hrd-info / slices=1 / no-opt-qp-pps / no-opt-ref-list-length-pps / no-multi-pass-opt-rps / scenecut-bias=0.05 / no-opt-cu-delta-qp / no-aq-motion / no-hdr / no-hdr-opt / no-dhdr10-opt / no-idr-recovery-sei / analysis-reuse-level=5 / scale-factor=0 / refine-intra=0 / refine-inter=0 / refine-mv=1 / refine-ctu-distortion=0 / no-limit-sao / ctu-info=0 / no-lowpass-dct / refine-analysis-type=0 / copy-pic=1 / max-ausize-factor=1.0 / no-dynamic-refine / no-single-sei / no-hevc-aq / no-svt / no-field / qp-adaptation-range=1.00
Language : English
Default : Yes
Forced : No
Color range : Limited
Color primaries : BT.709
Transfer characteristics : BT.709
Matrix coefficients : BT.709

Audio #1
ID : 2
Format : AC-3
Format/Info : Audio Coding 3
Commercial name : Dolby Digital
Codec ID : A_AC3
Duration : 1 h 51 min
Bit rate mode : Constant
Bit rate : 192 kb/s
Channel(s) : 2 channels
Channel layout : L R
Sampling rate : 48.0 kHz
Frame rate : 31.250 FPS (1536 SPF)
Bit depth : 16 bits
Compression mode : Lossy
Stream size : 153 MiB (1%)
Title : MVO Первый канал
Language : Russian
Service kind : Complete Main
Default : Yes
Forced : No

Audio #2
ID : 3
Format : AC-3
Format/Info : Audio Coding 3
Commercial name : Dolby Digital
Codec ID : A_AC3
Duration : 1 h 51 min
Bit rate mode : Constant
Bit rate : 192 kb/s
Channel(s) : 2 channels
Channel layout : L R
Sampling rate : 48.0 kHz
Frame rate : 31.250 FPS (1536 SPF)
Bit depth : 16 bits
Compression mode : Lossy
Stream size : 153 MiB (1%)
Title : DVO НТВ
Language : Russian
Service kind : Complete Main
Default : No
Forced : No

Audio #3
ID : 4
Format : AC-3
Format/Info : Audio Coding 3
Commercial name : Dolby Digital
Codec ID : A_AC3
Duration : 1 h 51 min
Bit rate mode : Constant
Bit rate : 256 kb/s
Channel(s) : 2 channels
Channel layout : L R
Sampling rate : 48.0 kHz
Frame rate : 31.250 FPS (1536 SPF)
Bit depth : 16 bits
Compression mode : Lossy
Stream size : 203 MiB (2%)
Title : AVO Михалев
Language : Russian
Service kind : Complete Main
Default : No
Forced : No

Audio #4
ID : 5
Format : AC-3
Format/Info : Audio Coding 3
Commercial name : Dolby Digital
Codec ID : A_AC3
Duration : 1 h 51 min
Bit rate mode : Constant
Bit rate : 224 kb/s
Channel(s) : 2 channels
Channel layout : L R
Sampling rate : 48.0 kHz
Frame rate : 31.250 FPS (1536 SPF)
Bit depth : 16 bits
Compression mode : Lossy
Stream size : 178 MiB (1%)
Title : AVO Товбин
Language : Russian
Service kind : Complete Main
Default : No
Forced : No

Audio #5
ID : 6
Format : AC-3
Format/Info : Audio Coding 3
Commercial name : Dolby Digital
Codec ID : A_AC3
Duration : 1 h 51 min
Bit rate mode : Constant
Bit rate : 192 kb/s
Channel(s) : 2 channels
Channel layout : L R
Sampling rate : 48.0 kHz
Frame rate : 31.250 FPS (1536 SPF)
Bit depth : 16 bits
Compression mode : Lossy
Stream size : 153 MiB (1%)
Title : AVO Иванов
Language : Russian
Service kind : Complete Main
Default : No
Forced : No

Audio #6
ID : 7
Format : AC-3
Format/Info : Audio Coding 3
Commercial name : Dolby Digital
Codec ID : A_AC3
Duration : 1 h 51 min
Bit rate mode : Constant
Bit rate : 224 kb/s
Channel(s) : 2 channels
Channel layout : L R
Sampling rate : 48.0 kHz
Frame rate : 31.250 FPS (1536 SPF)
Bit depth : 16 bits
Compression mode : Lossy
Stream size : 178 MiB (1%)
Title : VO Action Studio
Language : Russian
Service kind : Complete Main
Default : No
Forced : No

Audio #7
ID : 8
Format : AC-3
Format/Info : Audio Coding 3
Commercial name : Dolby Digital
Codec ID : A_AC3
Duration : 1 h 51 min
Bit rate mode : Constant
Bit rate : 192 kb/s
Channel(s) : 2 channels
Channel layout : L R
Sampling rate : 48.0 kHz
Frame rate : 31.250 FPS (1536 SPF)
Bit depth : 16 bits
Compression mode : Lossy
Stream size : 153 MiB (1%)
Title : VO
Language : Russian
Service kind : Complete Main
Default : No
Forced : No

Audio #8
ID : 9
Format : AC-3
Format/Info : Audio Coding 3
Commercial name : Dolby Digital
Codec ID : A_AC3
Duration : 1 h 51 min
Bit rate mode : Constant
Bit rate : 224 kb/s
Channel(s) : 2 channels
Channel layout : L R
Sampling rate : 48.0 kHz
Frame rate : 31.250 FPS (1536 SPF)
Bit depth : 16 bits
Compression mode : Lossy
Stream size : 178 MiB (1%)
Title : MVO UKR Enter-фільм
Language : Ukrainian
Service kind : Complete Main
Default : No
Forced : No

Audio #9
ID : 10
Format : AC-3
Format/Info : Audio Coding 3
Commercial name : Dolby Digital
Codec ID : A_AC3
Duration : 1 h 51 min
Bit rate mode : Constant
Bit rate : 256 kb/s
Channel(s) : 2 channels
Channel layout : L R
Sampling rate : 48.0 kHz
Frame rate : 31.250 FPS (1536 SPF)
Bit depth : 16 bits
Compression mode : Lossy
Stream size : 203 MiB (2%)
Language : English
Service kind : Complete Main
Default : No
Forced : No

Text
ID : 11
Format : UTF-8
Codec ID : S_TEXT/UTF8
Codec ID/Info : UTF-8 Plain Text
Duration : 1 h 50 min
Bit rate : 71 b/s
Count of elements : 1673
Stream size : 57.8 KiB (0%)
Title : SRT
Language : English
Default : No
Forced : No

Menu
00:00:00.000 : en:Chapter 1
00:06:47.115 : en:Chapter 2
00:15:25.049 : en:Chapter 3
00:22:08.490 : en:Chapter 4
00:29:05.118 : en:Chapter 5
00:35:35.925 : en:Chapter 6
00:35:35.920 : en:Chapter 7
00:43:06.290 : en:Chapter 8
00:49:06.020 : en:Chapter 9
00:56:23.755 : en:Chapter 10
01:01:15.880 : en:Chapter 11
01:07:27.043 : en:Chapter 12
01:17:31.396 : en:Chapter 13
01:22:19.517 : en:Chapter 14
01:26:59.839 : en:Chapter 15
01:37:54.033 : en:Chapter 16
01:42:40.571 : en:Chapter 17
Cкриншот1 Буйнопомешанные / Псих в тюряге / Stir Crazy (1980) BDRip 1080p [HEVC] 10 bit от Cthulhu (RG KORSAR)
Загружается...
Cкриншот2 Буйнопомешанные / Псих в тюряге / Stir Crazy (1980) BDRip 1080p [HEVC] 10 bit от Cthulhu (RG KORSAR)
Загружается...
Cкриншот3 Буйнопомешанные / Псих в тюряге / Stir Crazy (1980) BDRip 1080p [HEVC] 10 bit от Cthulhu (RG KORSAR)
Загружается...
Cкриншот4 Буйнопомешанные / Псих в тюряге / Stir Crazy (1980) BDRip 1080p [HEVC] 10 bit от Cthulhu (RG KORSAR)
Загружается...
Релиз-группа: KORSAR
Сэмпл Торрент🧲 Магнет

Кнопки "Позвать в чате" и "Спасибо" доступны только зарегистрированным/авторизованным пользователям!

Файлы: 1
  • Буйнопомешанные - Stir Crazy (1980) BDRip-HEVC 1080p - KORSAR.mkv   11.84 ГБ
Поблагодарили: 4
and50, LastSurviv0r, makss333, Undervest
23.03.2020  00:56:47 Cthulhu
0 12 3 0 11.84 ГБ

Добавление нового комментария

Добавление комментариев доступно только зарегистрированным/авторизованным пользователям.