Регистрация / Смена пароля

💬 Мини-чат

(Сегодня) XuMuK: awesomeptaxa, handbrake устарел года 2 назад, vidcoder - однокнопочный конвертер
(Сегодня) ADVOKAT69: joker63, ✋
(Сегодня) OldGamer: joker63, ✋
(Сегодня) joker63: ADVOKAT69, Spartanec1308, OldGamer, ✋
(Сегодня) OldGamer: ADVOKAT69, ✋
(Сегодня) Spartanec1308: ADVOKAT69, ✋
(Сегодня) ADVOKAT69: OldGamer, Spartanec1308, ✋
(08.04.2020) Spartanec1308: joker63, ✋
(08.04.2020) joker63: HANNIBAL, ✋
(08.04.2020) joker63: Spartanec1308, ✋
(08.04.2020) Spartanec1308: ADVOKAT69, ✋
(08.04.2020) OldGamer: joker63, ✋
(08.04.2020) joker63: ADVOKAT69, OldGamer, ✋
(08.04.2020) OldGamer: rodina_45, эта раздача будет переделана, старую раздавать не будут
(08.04.2020) Laska020489: NoMaD, я всё равно не понимаю разницу рипованый и тех что выложены по одиночке, можно подумать что по одиночке не рипы, да какая разница? на мой взгляд что там что там - оба рипы. кодеки тоже одинаковые. так зачем ждать месяцами? фильм он и в африке фильм. мне вот проще скачать сразу уже готовую коллекцию. как по мне качество тоже отличное хоть и на видюхе.
(08.04.2020) awesomeptaxa: ADVOKAT69, спасибо
(08.04.2020) ADVOKAT69: awesomeptaxa, https://rutracker.org/forum/viewtopic.php?t=4733376
(08.04.2020) awesomeptaxa: т.е. пресеты
(08.04.2020) ADVOKAT69: joker63, Spartanec1308, ✋
(08.04.2020) awesomeptaxa: риперы, можно ли делать рип опираясь на стандартные настройки программы через которую рипую (handbrake, vidcoder), или нужно самому вручную выставлять настройки?
  • OldGamer
  • Flamescorpion
  • PapiRUS45
  • yri150461
Отправка сообщений доступно только зарегистрированным/авторизованным пользователям.
Онлайн (за 10 мин.): 4

Аватар / Avatar (2009) [Extended Collector's Edition] BDRip 1080p [HEVC] 10 bit от Cthulhu (RG KORSAR)

HEVC
10 bit
Обложка Аватар / Avatar (2009) [Extended Collector's Edition] BDRip 1080p [HEVC] 10 bit от Cthulhu (RG KORSAR) Год: 2009
Страна: США, Великобритания
Студия: Dune Entertainment, Giant Studios Inc., Ingenious Media, Twentieth Century Fox Film Corporation
Жанр: Фантастика, Боевик, Триллер, Приключения
Продолжительность: 02:58:09

Режиссер: Джеймс Кэмерон
В ролях: Сэм Уортингтон, Зои Салдана, Сигурни Уивер, Стивен Лэнг, Мишель Родригес, Джованни Рибизи, Джоэл Мур, Си Си Эйч Паундер, Уэс Стьюди, Лаз Алонсо, Дилип Рао, Мэтт Джералд, Шон Энтони Моран, Джейсон Уайт, Скотт Лоуренс, Келли Килгур, Дж. Патрик Питтс, Шон Патрик Мерфи, Питер Диллон, Кевин Дорман, Келсон Хендерсон, Дэвид Ван Хорн, Джейкоб Томури, Майкл Блэйн-Розгей, Джон Брент Керри, Джулин Рени, Люк Хокер, Вуди Шульц, Питер Менса, Соня Йи, Илрам Чои, Кайла Уоррен, Дебра Уилсон

Описание: В середине XXII века на Земле наступил энергетический кризис. В поисках полезных ископаемых и новых источников энергии, далеко в космосе земляне обнаружили фантастически красивую планету, населённую синекожими гигантами-гуманоидами - на'ви. Атмосфера Пандоры была не пригодна для дыхания человека, но обнаруженный на планете ценный минерал анобтаниум мог решить все энергетические проблемы на Земле. Для изучения и освоения планеты люди используют "аватары" - гигантские синекожие тела, искусственно выращенные с использованием ДНК людей и на'ви. Управление осуществлялось виртуально донорами-операторами. Но неожиданно один из учёных-операторов погибает и для управления его аватаром с Земли прилетает брат-близнец. Джейк - бывший морпех, был тяжело ранен и теперь передвигается только в коляске. Наспех изучив инструкцию по управлению он ложится в камеру переносящую сознание оператора в мозг аватара...

КиноПоиск
7.939 453952
IMDb
7.8
1084208


Видео: 1920x1080, 11.6 Mbps
Аудио1: AC3, 6 ch, 640 Kbps -
Русский, Дублированный (YuriyAS)
Аудио2: AC3, 6 ch, 448 Kbps -
Русский, Дублированный (Лицензия)
Аудио3: AC3, 6 ch, 640 Kbps -
Русский, Двухголосый (Кубик в кубе)
Аудио4: AC3, 6 ch, 640 Kbps -
Русский, Одноголосый (Сербин)
Аудио5: AC3, 6 ch, 448 Kbps -
Русский, Одноголосый (Солодухин)
Аудио6: AC3, 6 ch, 448 Kbps -
Украинский, Дублированный
Аудио7: AC3, 6 ch, 640 Kbps -
Английский, Оригинал
Субтитры: Русские (форсированные, полные), украинские форсированные, English (форсированные, полные, SDH)

Как за пару секунд удалить ненужные аудиодорожки и субтитры (Внимание! После удаления вы не сможете поддержать раздачу)

Медиаинфо
x265 [info]: frame I: 2554, Avg QP:17.80 kb/s: 32966.81
x265 [info]: frame P: 51971, Avg QP:19.22 kb/s: 22238.81
x265 [info]: frame B: 201764, Avg QP:21.30 kb/s: 8605.79
x265 [info]: consecutive B-frames: 6.2% 0.8% 3.0% 44.2% 10.6% 28.9% 2.2% 2.2% 1.5% 0.2% 0.2%

General
Unique ID : 179110657751021976782810322003265176774 (0x86BF7539BB320D90303E6190B8C5C4C6)
Complete name : H:\HEVC4\Аватар - Avatar (Extended Collector's Edition) (2009) BDRip-HEVC 1080p - KORSAR.mkv
Format : Matroska
Format version : Version 4 / Version 2
File size : 19.3 GiB
Duration : 2 h 58 min
Overall bit rate : 15.5 Mb/s
Movie name : Avatar (Extended Collector's Edition) (2009)_rip_by_Cthulhu
Encoded date : UTC 2020-02-29 09:09:44
Writing application : mkvmerge v37.0.0 ('Leave It') 64-bit
Writing library : libebml v1.3.9 + libmatroska v1.5.2
Cover : Yes
Attachments : cover4.jpg

Video
ID : 1
Format : HEVC
Format/Info : High Efficiency Video Coding
Format profile : Main 10@L4.1@High
Codec ID : V_MPEGH/ISO/HEVC
Duration : 2 h 58 min
Bit rate : 11.6 Mb/s
Width : 1 920 pixels
Height : 1 080 pixels
Display aspect ratio : 16:9
Frame rate mode : Constant
Frame rate : 23.976 (24000/1001) FPS
Color space : YUV
Chroma subsampling : 4:2:0
Bit depth : 10 bits
Bits/(Pixel*Frame) : 0.234
Stream size : 14.5 GiB (75%)
Writing library : x265 3.3+1-g554c887ac:[Windows][MSVC 1900][64 bit] 10bit
Encoding settings : cpuid=1111039 / frame-threads=4 / numa-pools=16 / wpp / no-pmode / no-pme / no-psnr / no-ssim / log-level=2 / input-csp=1 / input-res=1920x1080 / interlace=0 / total-frames=256289 / level-idc=41 / high-tier=1 / uhd-bd=0 / ref=5 / no-allow-non-conformance / no-repeat-headers / annexb / no-aud / no-hrd / info / hash=0 / no-temporal-layers / open-gop / min-keyint=23 / keyint=240 / gop-lookahead=0 / bframes=10 / b-adapt=2 / b-pyramid / bframe-bias=0 / rc-lookahead=60 / lookahead-slices=1 / scenecut=40 / hist-scenecut=0 / radl=0 / no-splice / no-intra-refresh / ctu=32 / min-cu-size=8 / rect / amp / max-tu-size=32 / tu-inter-depth=4 / tu-intra-depth=4 / limit-tu=1 / rdoq-level=2 / dynamic-rd=0.00 / no-ssim-rd / signhide / no-tskip / nr-intra=0 / nr-inter=0 / no-constrained-intra / no-strong-intra-smoothing / max-merge=5 / limit-refs=3 / limit-modes / me=3 / subme=7 / merange=48 / temporal-mvp / no-frame-dup / hme / Level / merange / L0,L1,L2=16,32,48 / weightp / weightb / no-analyze-src-pics / deblock=-3:-3 / no-sao / no-sao-non-deblock / rd=6 / selective-sao=0 / no-early-skip / no-rskip / no-fast-intra / no-tskip-fast / no-cu-lossless / no-b-intra / no-splitrd-skip / rdpenalty=0 / psy-rd=2.00 / psy-rdoq=1.25 / no-rd-refine / no-lossless / cbqpoffs=0 / crqpoffs=0 / rc=crf / crf=19.0 / qcomp=0.75 / qpstep=4 / stats-write=0 / stats-read=0 / vbv-maxrate=50000 / vbv-bufsize=50000 / vbv-init=0.9 / crf-max=0.0 / crf-min=0.0 / ipratio=1.40 / pbratio=1.30 / aq-mode=4 / aq-strength=0.80 / no-cutree / zone-count=0 / no-strict-cbr / qg-size=32 / no-rc-grain / qpmax=69 / qpmin=0 / no-const-vbv / sar=1 / overscan=0 / videoformat=5 / range=0 / colorprim=1 / transfer=1 / colormatrix=1 / chromaloc=0 / display-window=0 / cll=0,0 / min-luma=0 / max-luma=1023 / log2-max-poc-lsb=8 / vui-timing-info / vui-hrd-info / slices=1 / no-opt-qp-pps / no-opt-ref-list-length-pps / no-multi-pass-opt-rps / scenecut-bias=0.05 / hist-threshold=0.01 / no-opt-cu-delta-qp / no-aq-motion / no-hdr10 / no-hdr10-opt / no-dhdr10-opt / no-idr-recovery-sei / analysis-reuse-level=0 / analysis-save-reuse-level=0 / analysis-load-reuse-level=0 / scale-factor=0 / refine-intra=0 / refine-inter=0 / refine-mv=1 / refine-ctu-distortion=0 / no-limit-sao / ctu-info=0 / no-lowpass-dct / refine-analysis-type=0 / copy-pic=1 / max-ausize-factor=1.0 / no-dynamic-refine / no-single-sei / no-hevc-aq / no-svt / no-field / qp-adaptation-range=1.00 / no-scenecut-aware-qpconformance-window-offsets / right=0 / bottom=0
Language : English
Default : Yes
Forced : No
Color range : Limited
Color primaries : BT.709
Transfer characteristics : BT.709
Matrix coefficients : BT.709

Audio #1
ID : 2
Format : AC-3
Format/Info : Audio Coding 3
Commercial name : Dolby Digital
Codec ID : A_AC3
Duration : 2 h 58 min
Bit rate mode : Constant
Bit rate : 640 kb/s
Channel(s) : 6 channels
Channel layout : L R C LFE Ls Rs
Sampling rate : 48.0 kHz
Frame rate : 31.250 FPS (1536 SPF)
Bit depth : 16 bits
Compression mode : Lossy
Stream size : 816 MiB (4%)
Title : DUB (YuriyAS)
Language : Russian
Service kind : Complete Main
Default : Yes
Forced : No

Audio #2
ID : 3
Format : AC-3
Format/Info : Audio Coding 3
Commercial name : Dolby Digital
Codec ID : A_AC3
Duration : 2 h 58 min
Bit rate mode : Constant
Bit rate : 448 kb/s
Channel(s) : 6 channels
Channel layout : L R C LFE Ls Rs
Sampling rate : 48.0 kHz
Frame rate : 31.250 FPS (1536 SPF)
Bit depth : 16 bits
Compression mode : Lossy
Stream size : 571 MiB (3%)
Title : DUB
Language : Russian
Service kind : Complete Main
Default : No
Forced : No

Audio #3
ID : 4
Format : AC-3
Format/Info : Audio Coding 3
Commercial name : Dolby Digital
Codec ID : A_AC3
Duration : 2 h 58 min
Bit rate mode : Constant
Bit rate : 640 kb/s
Channel(s) : 6 channels
Channel layout : L R C LFE Ls Rs
Sampling rate : 48.0 kHz
Frame rate : 31.250 FPS (1536 SPF)
Bit depth : 16 bits
Compression mode : Lossy
Stream size : 816 MiB (4%)
Title : DVO (Кубик в Кубе)
Language : Russian
Service kind : Complete Main
Default : No
Forced : No

Audio #4
ID : 5
Format : AC-3
Format/Info : Audio Coding 3
Commercial name : Dolby Digital
Codec ID : A_AC3
Duration : 2 h 58 min
Bit rate mode : Constant
Bit rate : 640 kb/s
Channel(s) : 6 channels
Channel layout : L R C LFE Ls Rs
Sampling rate : 48.0 kHz
Frame rate : 31.250 FPS (1536 SPF)
Bit depth : 16 bits
Compression mode : Lossy
Stream size : 816 MiB (4%)
Title : AVO (Сербин)
Language : Russian
Service kind : Complete Main
Default : No
Forced : No

Audio #5
ID : 6
Format : AC-3
Format/Info : Audio Coding 3
Commercial name : Dolby Digital
Codec ID : A_AC3
Duration : 2 h 58 min
Bit rate mode : Constant
Bit rate : 448 kb/s
Channel(s) : 6 channels
Channel layout : L R C LFE Ls Rs
Sampling rate : 48.0 kHz
Frame rate : 31.250 FPS (1536 SPF)
Bit depth : 16 bits
Compression mode : Lossy
Stream size : 571 MiB (3%)
Title : VO (Солодухин)
Language : Russian
Service kind : Complete Main
Default : No
Forced : No

Audio #6
ID : 7
Format : AC-3
Format/Info : Audio Coding 3
Commercial name : Dolby Digital
Codec ID : A_AC3
Duration : 2 h 58 min
Bit rate mode : Constant
Bit rate : 448 kb/s
Channel(s) : 6 channels
Channel layout : L R C LFE Ls Rs
Sampling rate : 48.0 kHz
Frame rate : 31.250 FPS (1536 SPF)
Bit depth : 16 bits
Compression mode : Lossy
Stream size : 571 MiB (3%)
Title : DUB
Language : Ukrainian
Service kind : Complete Main
Default : No
Forced : No

Audio #7
ID : 8
Format : AC-3
Format/Info : Audio Coding 3
Commercial name : Dolby Digital
Codec ID : A_AC3
Duration : 2 h 58 min
Bit rate mode : Constant
Bit rate : 640 kb/s
Channel(s) : 6 channels
Channel layout : L R C LFE Ls Rs
Sampling rate : 48.0 kHz
Frame rate : 31.250 FPS (1536 SPF)
Bit depth : 16 bits
Compression mode : Lossy
Stream size : 816 MiB (4%)
Language : English
Service kind : Complete Main
Default : No
Forced : No

Text #1
ID : 9
Format : UTF-8
Codec ID : S_TEXT/UTF8
Codec ID/Info : UTF-8 Plain Text
Duration : 2 h 46 min
Bit rate : 11 b/s
Count of elements : 219
Stream size : 13.5 KiB (0%)
Title : Forced Coloured
Language : Russian
Default : No
Forced : No

Text #2
ID : 10
Format : UTF-8
Codec ID : S_TEXT/UTF8
Codec ID/Info : UTF-8 Plain Text
Duration : 2 h 53 min
Bit rate : 71 b/s
Count of elements : 1722
Stream size : 91.5 KiB (0%)
Title : Full Coloured
Language : Russian
Default : No
Forced : No

Text #3
ID : 11
Format : UTF-8
Codec ID : S_TEXT/UTF8
Codec ID/Info : UTF-8 Plain Text
Duration : 2 h 47 min
Bit rate : 9 b/s
Count of elements : 246
Stream size : 11.8 KiB (0%)
Title : Forced
Language : Ukrainian
Default : No
Forced : No

Text #4
ID : 12
Format : UTF-8
Codec ID : S_TEXT/UTF8
Codec ID/Info : UTF-8 Plain Text
Duration : 1 h 59 min
Bit rate : 2 b/s
Count of elements : 82
Stream size : 1.92 KiB (0%)
Title : Forced
Language : English
Default : No
Forced : No

Text #5
ID : 13
Format : UTF-8
Codec ID : S_TEXT/UTF8
Codec ID/Info : UTF-8 Plain Text
Duration : 2 h 53 min
Bit rate : 40 b/s
Count of elements : 1683
Stream size : 51.1 KiB (0%)
Title : Full
Language : English
Default : No
Forced : No

Text #6
ID : 14
Format : UTF-8
Codec ID : S_TEXT/UTF8
Codec ID/Info : UTF-8 Plain Text
Duration : 2 h 57 min
Bit rate : 45 b/s
Count of elements : 2203
Stream size : 58.6 KiB (0%)
Title : SDH
Language : English
Default : No
Forced : No

Menu
00:00:00.000 : en:Lost Soul
00:05:25.575 : en:A New World
00:10:12.278 : en:You Are Not In Kansas Anymore
00:11:47.915 : en:"This Is Your Avatar Now, Jake ."
00:15:59.208 : en:"This Is Why We're Here..."
00:17:54.782 : en:First Awakening
00:23:54.891 : en:Colonel Quaritch
00:27:54.547 : en:First Sortie
00:30:27.617 : en:Abandoned Schoolhouse
00:32:27.904 : en:Thanator Chase
00:37:16.525 : en:A Sign
00:39:08.053 : en:Viperwolves
00:41:18.475 : en:Neytiri
00:49:16.912 : en:The Omaticaya Clan
00:55:42.213 : en:Cover Report
01:01:09.415 : en:The Hallelujah Mountains
01:07:03.227 : en:Learn Fast Or Die
01:11:50.222 : en:A Mother's Pain
01:15:53.799 : en:Banshee Rookery
01:22:38.119 : en:First Flight
01:26:12.709 : en:Clan Hunt
01:27:42.298 : en:Last Shadow
01:33:00.407 : en:A Son Of the Omaticaya
01:37:36.892 : en:Willow Glade Destruction
01:44:15.290 : en:Conflict Escalation
01:50:02.595 : en:"You Will Never Be One Of The People!"
01:51:53.581 : en:Assault On Hometree
01:58:30.895 : en:Aftermath
02:02:13.284 : en:Escape From Hell's Gate
02:07:51.663 : en:There's Something We Gotta Do..."
02:09:30.554 : en:Toruk Macto
02:12:36.615 : en:"She's Real"
02:16:03.363 : en:Recruiting The Clans
02:19:31.654 : en:Preamble To Battle
02:23:59.630 : en:Battle For Pandora
02:30:05.079 : en:Fall Of The Heroes
02:33:56.852 : en:Eywa
02:40:02.259 : en:Quartich Fight
02:45:33.214 : en:"I See You"
02:46:48.498 : en:My Brother
02:48:56.793 : en:Transformation
02:51:32.073 : en:End Credits
Cкриншот1 Аватар / Avatar (2009) [Extended Collector's Edition] BDRip 1080p [HEVC] 10 bit от Cthulhu (RG KORSAR)
Загружается...
Cкриншот2 Аватар / Avatar (2009) [Extended Collector's Edition] BDRip 1080p [HEVC] 10 bit от Cthulhu (RG KORSAR)
Загружается...
Cкриншот3 Аватар / Avatar (2009) [Extended Collector's Edition] BDRip 1080p [HEVC] 10 bit от Cthulhu (RG KORSAR)
Загружается...
Cкриншот4 Аватар / Avatar (2009) [Extended Collector's Edition] BDRip 1080p [HEVC] 10 bit от Cthulhu (RG KORSAR)
Загружается...
Релиз-группа: KORSAR
Сэмпл Торрент🧲 Магнет

Кнопки "Позвать в чате" и "Спасибо" доступны только зарегистрированным/авторизованным пользователям!

Файлы: 1
  • Аватар - Avatar (Extended Collector's Edition) (2009) BDRip-HEVC 1080p - KORSAR.mkv   19.32 ГБ
Поблагодарили: 10
aquarius, grudich, keks, Kilop77, Kiran, Laska020489, makss333, mat, NoMaD, silver
23.03.2020  00:44:28 Cthulhu
12 249 23 15 19.32 ГБ

Добавление нового комментария

Добавление комментариев доступно только зарегистрированным/авторизованным пользователям.
Аватар Laska020489
  Laska020489  01.04.2020  16:00:15
Admin писал(а):
0 секунд - на обложке написано.
а вот это реально полезная инфа. впредь буду обращать внимание. (мог бы мне на первое сообщение так ответить) - сразу видно - ADMIN)) коротко чётко и понятно. СПС - те
Аватар Laska020489
  Laska020489  01.04.2020  15:57:21
OldGamer писал(а):
три секунды через правую кнопку и "Перевести на русский" 😃, хотя уж не знать перевод таких то слов
и как мы в своё время с нерусифицированным ms-dos / 3.11 for workgroups разбирались...
ха яндекс обошёл гугл! - я в гугле переводил))
Аватар Admin
  Admin  01.04.2020  15:35:53
0 секунд - на обложке написано.
Аватар OldGamer
  OldGamer  01.04.2020  15:29:09
три секунды через правую кнопку и "Перевести на русский" 😃, хотя уж не знать перевод таких то слов
и как мы в своё время с нерусифицированным ms-dos / 3.11 for workgroups разбирались...
Аватар Cthulhu
  Cthulhu  01.04.2020  14:42:56
Laska020489 писал(а):
спс - но перевод минут 20 искал, пака не начал переводить по одному слову)) полную фразу "Extended Collector's Edition" так и не смог перевести ✌
https://a.radikal.ru/a18/2004/c6/45a03afb6b02.jpg
заняло семь секунд )))))))))
Аватар Cthulhu
  Cthulhu  01.04.2020  14:37:18
OldGamer писал(а):
может ожидалось в названии "он просыпается дома потом бар и драка Edition"?
Надо кемерону написать что он накосячил с названием издания, пусть переименовывает))))
Аватар Laska020489
  Laska020489  01.04.2020  14:30:40
присоединяюсь к закачке
Аватар Laska020489
  Laska020489  01.04.2020  14:29:43
Admin писал(а):
В названии "Extended Collector's Edition" ни о чем не говорит?
https://www.movie-censorship.com/list.php?s=avatar
спс - но перевод минут 20 искал, пака не начал переводить по одному слову)) полную фразу "Extended Collector's Edition" так и не смог перевести ✌
Аватар OldGamer
  OldGamer  01.04.2020  14:28:23
может ожидалось в названии "он просыпается дома потом бар и драка Edition"?
Аватар Admin
  Admin  01.04.2020  13:24:55
Laska020489 писал(а):
Подскажите пожалуйста: фильм полнометражный или обрезанный? Я имею в виду какое начало, он просыпается дома потом бар и драка или он просыпается сразу после крио-сна? И есть ли сцена как он спаривается волосами со своей подружкой??? а то не хочется за зря 21 гиг тянуть
В названии "Extended Collector's Edition" ни о чем не говорит?
https://www.movie-censorship.com/list.php?s=avatar
Аватар Laska020489
  Laska020489  01.04.2020  13:01:21
Cthulhu писал(а):
Кастомный дубляж (YuriyAS) получен из оригинальной DTS-HD MA дорожки и дублированной ДТС дорожки путём замены всех участков с английской речью, отголосками и эхом на аналогичные с дублированной дорожки во всех каналах
Подскажите пожалуйста: фильм полнометражный или обрезанный? Я имею в виду какое начало, он просыпается дома потом бар и драка или он просыпается сразу после крио-сна? И есть ли сцена как он спаривается волосами со своей подружкой??? а то не хочется за зря 21 гиг тянуть
Аватар Cthulhu
  Cthulhu  23.03.2020  01:31:19
Кастомный дубляж (YuriyAS) получен из оригинальной DTS-HD MA дорожки и дублированной ДТС дорожки путём замены всех участков с английской речью, отголосками и эхом на аналогичные с дублированной дорожки во всех каналах