Регистрация / Смена пароля

💬 Мини-чат

(Сегодня) XuMuK: awesomeptaxa, handbrake устарел года 2 назад, vidcoder - однокнопочный конвертер
(Сегодня) ADVOKAT69: joker63, ✋
(Сегодня) OldGamer: joker63, ✋
(Сегодня) joker63: ADVOKAT69, Spartanec1308, OldGamer, ✋
(Сегодня) OldGamer: ADVOKAT69, ✋
(Сегодня) Spartanec1308: ADVOKAT69, ✋
(Сегодня) ADVOKAT69: OldGamer, Spartanec1308, ✋
(08.04.2020) Spartanec1308: joker63, ✋
(08.04.2020) joker63: HANNIBAL, ✋
(08.04.2020) joker63: Spartanec1308, ✋
(08.04.2020) Spartanec1308: ADVOKAT69, ✋
(08.04.2020) OldGamer: joker63, ✋
(08.04.2020) joker63: ADVOKAT69, OldGamer, ✋
(08.04.2020) OldGamer: rodina_45, эта раздача будет переделана, старую раздавать не будут
(08.04.2020) Laska020489: NoMaD, я всё равно не понимаю разницу рипованый и тех что выложены по одиночке, можно подумать что по одиночке не рипы, да какая разница? на мой взгляд что там что там - оба рипы. кодеки тоже одинаковые. так зачем ждать месяцами? фильм он и в африке фильм. мне вот проще скачать сразу уже готовую коллекцию. как по мне качество тоже отличное хоть и на видюхе.
(08.04.2020) awesomeptaxa: ADVOKAT69, спасибо
(08.04.2020) ADVOKAT69: awesomeptaxa, https://rutracker.org/forum/viewtopic.php?t=4733376
(08.04.2020) awesomeptaxa: т.е. пресеты
(08.04.2020) ADVOKAT69: joker63, Spartanec1308, ✋
(08.04.2020) awesomeptaxa: риперы, можно ли делать рип опираясь на стандартные настройки программы через которую рипую (handbrake, vidcoder), или нужно самому вручную выставлять настройки?
  • joker1001
  • masterok36
Отправка сообщений доступно только зарегистрированным/авторизованным пользователям.
Онлайн (за 10 мин.): 2

Идеальный пациент / Quick / The Perfect Patient (2019) BDRip 1080p [HEVC] 10 bit от M@kSIMus

HEVC
10 bit
Обложка Идеальный пациент / Quick / The Perfect Patient (2019) BDRip 1080p [HEVC] 10 bit от M@kSIMus Год: 2019
Страна: Швеция
Студия: Brain Academy, Film i Väst, Nordisk Film
Жанр: Триллер
Продолжительность: 02:11:21

Режиссер: Микаэль Хофстрём
В ролях: Йонас Карлссон, Давид Денсик, Альба Аугуст, Сюзанн Рейтер, Линда Ульвеус, Кристофер Вагелин, Това Магнуссон-Норлинг, Даг Малмберг, Магнус Роосманн, Бьёрн Бенгтссон

Описание: Его изощренному уму позавидовал бы сам Ганнибал Лектер. Десятки жертв по всей стране и никаких улик. Единственный свидетель — он сам, сдавшийся на милость правосудия. Что это, муки совести или очередной ход в его чудовищной игре? В клетку со зверем заходит журналист.

КиноПоиск
6.35 5373
IMDb
6.8
1172


Видео: 1920x720, 7567 Kbps
Аудио1: AC3, 6 ch, 384 Kbps -
Русский, Дублированный (iTunes)
Аудио2: AC3, 6 ch, 640 Kbps - Шведский, Оригинал
Субтитры: отсутствуют

Как за пару секунд удалить ненужные аудиодорожки и субтитры (Внимание! После удаления вы не сможете поддержать раздачу)

Лог (x265 info)
x265 info: frame I: 1822, Avg QP:15.81 kb/s: 21368.85
x265 info: frame P: 30596, Avg QP:17.01 kb/s: 12626.78
x265 info: frame B: 156748, Avg QP:19.65 kb/s: 6417.94
x265 info: Weighted P-Frames: Y:5.4% UV:3.7%
x265 info: consecutive B-frames: 9.6% 3.6% 5.2% 16.1% 9.0% 27.6% 5.5% 5.9% 4.3% 3.3% 2.1% 5.9% 1.9%
x265 info: encoded 189166 frames in 149144.07s (1.27 fps), 7566.17 kb/s, Avg QP:19.19
Медиаинфо
Формат : Matroska
Версия формата : Version 4
Размер файла : 7,88 Гбайт
Продолжительность : 2 ч. 11 м.
Общий поток : 8593 Кбит/сек
Название фильма : Идеальный пациент / Quick / The Perfect Patient (2019)
Дата кодирования : UTC 2020-03-22 01:32:29
Программа кодирования : mkvmerge v44.0.0 ('Domino') 64-bit
Библиотека кодирования : libebml v1.3.10 + libmatroska v1.5.2
Обложка : Yes
Attachments : cover.jpg

Видео
Идентификатор : 1
Формат : HEVC
Формат/Информация : High Efficiency Video Coding
Профиль формата : Main 10@L4.1@High
Идентификатор кодека : V_MPEGH/ISO/HEVC
Продолжительность : 2 ч. 11 м.
Битрейт : 7567 Кбит/сек
Ширина : 1920 пикселей
Высота : 720 пикселей
Соотношение сторон : 2,667
Режим частоты кадров : Постоянный
Частота кадров : 24,000 кадра/сек
Цветовое пространство : YUV
Субдискретизация насыщенности : 4:2:0
Битовая глубина : 10 бит
Бит/(Пиксели*Кадры) : 0.228
Размер потока : 6,94 Гбайт (88%)
Библиотека кодирования : x265 3.2+5-354901970679:[Windows][clang 8.0.1][64 bit] 10bit
Настройки программы : cpuid=1049583 / frame-threads=5 / numa-pools=4 / wpp / no-pmode / no-pme / no-psnr / no-ssim / log-level=3 / input-csp=1 / input-res=1920x720 / interlace=0 / total-frames=0 / level-idc=41 / high-tier=1 / uhd-bd=0 / ref=5 / allow-non-conformance / no-repeat-headers / annexb / no-aud / no-hrd / info / hash=0 / no-temporal-layers / open-gop / min-keyint=24 / keyint=240 / gop-lookahead=0 / bframes=12 / b-adapt=2 / b-pyramid / bframe-bias=0 / rc-lookahead=40 / lookahead-slices=4 / scenecut=40 / radl=0 / no-splice / no-intra-refresh / ctu=32 / min-cu-size=8 / rect / no-amp / max-tu-size=32 / tu-inter-depth=4 / tu-intra-depth=4 / limit-tu=1 / rdoq-level=1 / dynamic-rd=0.00 / no-ssim-rd / signhide / no-tskip / nr-intra=0 / nr-inter=0 / no-constrained-intra / no-strong-intra-smoothing / max-merge=5 / limit-refs=1 / no-limit-modes / me=3 / subme=7 / merange=57 / temporal-mvp / no-frame-dup / no-hme / weightp / no-weightb / no-analyze-src-pics / deblock=-3:-3 / no-sao / no-sao-non-deblock / rd=4 / selective-sao=0 / early-skip / no-rskip / no-fast-intra / no-tskip-fast / no-cu-lossless / b-intra / no-splitrd-skip / rdpenalty=0 / psy-rd=2.00 / psy-rdoq=1.00 / no-rd-refine / no-lossless / cbqpoffs=0 / crqpoffs=0 / rc=crf / crf=20.0 / qcomp=0.60 / qpstep=4 / stats-write=0 / stats-read=0 / vbv-maxrate=50000 / vbv-bufsize=50000 / vbv-init=0.9 / crf-max=0.0 / crf-min=0.0 / ipratio=1.40 / pbratio=1.30 / aq-mode=3 / aq-strength=1.00 / no-cutree / zone-count=0 / no-strict-cbr / qg-size=32 / no-rc-grain / qpmax=69 / qpmin=0 / no-const-vbv / sar=1 / overscan=0 / videoformat=5 / range=0 / colorprim=1 / transfer=1 / colormatrix=1 / chromaloc=0 / display-window=0 / cll=0,0 / min-luma=0 / max-luma=1023 / log2-max-poc-lsb=8 / vui-timing-info / vui-hrd-info / slices=1 / no-opt-qp-pps / no-opt-ref-list-length-pps / no-multi-pass-opt-rps / scenecut-bias=0.05 / no-opt-cu-delta-qp / no-aq-motion / no-hdr / no-hdr-opt / no-dhdr10-opt / no-idr-recovery-sei / analysis-reuse-level=5 / scale-factor=0 / refine-intra=0 / refine-inter=0 / refine-mv=1 / refine-ctu-distortion=0 / no-limit-sao / ctu-info=0 / no-lowpass-dct / refine-analysis-type=0 / copy-pic=1 / max-ausize-factor=1.0 / no-dynamic-refine / no-single-sei / no-hevc-aq / no-svt / no-field / qp-adaptation-range=1.00
Язык : Swedish
Default : Да
Forced : Нет
Цветовой диапазон : Limited
Основные цвета : BT.709
Характеристики трансфера : BT.709
Коэффициенты матрицы : BT.709

Аудио #1
Идентификатор : 2
Формат : AC-3
Формат/Информация : Audio Coding 3
Коммерческое название : Dolby Digital
Идентификатор кодека : A_AC3
Продолжительность : 2 ч. 11 м.
Вид битрейта : Постоянный
Битрейт : 384 Кбит/сек
Каналы : 6 каналов
ChannelLayout : L R C LFE Ls Rs
Частота : 48,0 КГц
Частота кадров : 31,250 кадров/сек (1536 SPF)
Битовая глубина : 16 бит
Метод сжатия : С потерями
Размер потока : 361 Мбайт (4%)
Заголовок : iTunes
Язык : Russian
ServiceKind/String : Complete Main
Default : Да
Forced : Нет

Аудио #2
Идентификатор : 3
Формат : AC-3
Формат/Информация : Audio Coding 3
Коммерческое название : Dolby Digital
Идентификатор кодека : A_AC3
Продолжительность : 2 ч. 11 м.
Вид битрейта : Постоянный
Битрейт : 640 Кбит/сек
Каналы : 6 каналов
ChannelLayout : L R C LFE Ls Rs
Частота : 48,0 КГц
Частота кадров : 31,250 кадров/сек (1536 SPF)
Битовая глубина : 16 бит
Метод сжатия : С потерями
Размер потока : 601 Мбайт (7%)
Заголовок : Original
Язык : Swedish
ServiceKind/String : Complete Main
Default : Нет
Forced : Нет

Меню
00:00:00.000 : :Глава 01
00:10:20.292 : :Глава 02
00:20:41.875 : :Глава 03
00:31:10.958 : :Глава 04
00:40:48.333 : :Глава 05
00:51:13.292 : :Глава 06
01:01:44.667 : :Глава 07
01:12:32.417 : :Глава 08
01:23:08.500 : :Глава 09
01:32:45.667 : :Глава 10
01:43:23.417 : :Глава 11
01:53:34.292 : :Глава 12
02:02:59.625 : :Глава 13
Cкриншот1 Идеальный пациент / Quick / The Perfect Patient (2019) BDRip 1080p [HEVC] 10 bit от M@kSIMus
Загружается...
Cкриншот2 Идеальный пациент / Quick / The Perfect Patient (2019) BDRip 1080p [HEVC] 10 bit от M@kSIMus
Загружается...
Cкриншот3 Идеальный пациент / Quick / The Perfect Patient (2019) BDRip 1080p [HEVC] 10 bit от M@kSIMus
Загружается...
Cкриншот4 Идеальный пациент / Quick / The Perfect Patient (2019) BDRip 1080p [HEVC] 10 bit от M@kSIMus
Загружается...
Сэмпл Торрент🧲 Магнет

Кнопки "Позвать в чате" и "Спасибо" доступны только зарегистрированным/авторизованным пользователям!

Файлы: 1
  • The Perfect Patient (2019) BDRip 1080p [HEVC] 10 bit.mkv   7.88 ГБ
Поблагодарили: 4
and50, aquarius, makss333, MIGRANT
22.03.2020  09:39:07 Admin
1 301 22 2 7.88 ГБ

Добавление нового комментария

Добавление комментариев доступно только зарегистрированным/авторизованным пользователям.
Аватар Laska020489
  Laska020489  22.03.2020  11:29:34
как по мне шляпа