Регистрация / Смена пароля

💬 Мини-чат

(Сегодня) XuMuK: awesomeptaxa, handbrake устарел года 2 назад, vidcoder - однокнопочный конвертер
(Сегодня) ADVOKAT69: joker63, ✋
(Сегодня) OldGamer: joker63, ✋
(Сегодня) joker63: ADVOKAT69, Spartanec1308, OldGamer, ✋
(Сегодня) OldGamer: ADVOKAT69, ✋
(Сегодня) Spartanec1308: ADVOKAT69, ✋
(Сегодня) ADVOKAT69: OldGamer, Spartanec1308, ✋
(08.04.2020) Spartanec1308: joker63, ✋
(08.04.2020) joker63: HANNIBAL, ✋
(08.04.2020) joker63: Spartanec1308, ✋
(08.04.2020) Spartanec1308: ADVOKAT69, ✋
(08.04.2020) OldGamer: joker63, ✋
(08.04.2020) joker63: ADVOKAT69, OldGamer, ✋
(08.04.2020) OldGamer: rodina_45, эта раздача будет переделана, старую раздавать не будут
(08.04.2020) Laska020489: NoMaD, я всё равно не понимаю разницу рипованый и тех что выложены по одиночке, можно подумать что по одиночке не рипы, да какая разница? на мой взгляд что там что там - оба рипы. кодеки тоже одинаковые. так зачем ждать месяцами? фильм он и в африке фильм. мне вот проще скачать сразу уже готовую коллекцию. как по мне качество тоже отличное хоть и на видюхе.
(08.04.2020) awesomeptaxa: ADVOKAT69, спасибо
(08.04.2020) ADVOKAT69: awesomeptaxa, https://rutracker.org/forum/viewtopic.php?t=4733376
(08.04.2020) awesomeptaxa: т.е. пресеты
(08.04.2020) ADVOKAT69: joker63, Spartanec1308, ✋
(08.04.2020) awesomeptaxa: риперы, можно ли делать рип опираясь на стандартные настройки программы через которую рипую (handbrake, vidcoder), или нужно самому вручную выставлять настройки?
  • OldGamer
  • Maxim
  • Solee
Отправка сообщений доступно только зарегистрированным/авторизованным пользователям.
Онлайн (за 10 мин.): 3

Заражение / Contagion (2011) BDRip 1080p [HEVC] 10 bit от M@kSIMus

HEVC
10 bit
Обложка Заражение / Contagion (2011) BDRip 1080p [HEVC] 10 bit от M@kSIMus Год: 2011
Страна: ОАЭ, США
Студия: Double Feature Films, Imagenation Abu Dhabi FZ, Participant Media, Regency Enterprises, Warner Bros. Pictures
Жанр: Фантастика, Боевик, Триллер, Драма
Продолжительность: 01:46:26

Режиссер: Стивен Содерберг
В ролях: Мэтт Дэймон, Лоренс Фишбёрн, Джуд Лоу, Кейт Уинслет, Марион Котийяр, Гвинет Пэлтроу, Брайан Крэнстон, Дженнифер Эль, Санаа Лэтэн, Эллиотт Гулд

Описание: Международная организация врачей совместно с Центром по контролю и профилактике заболеваний США пытается помешать распространению смертельного вируса.

КиноПоиск
6.491 84070
IMDb
6.7
247869


Видео: 1920x1080, 5688 Kbps
Аудио1: AC3, 6 ch, 640 Kbps -
Русский, Дублированный
Аудио2: AC3, 6 ch, 640 Kbps -
Английский, Оригинал
Субтитры: Русские (форсированные, полные), английские

Как за пару секунд удалить ненужные аудиодорожки и субтитры (Внимание! После удаления вы не сможете поддержать раздачу)

Лог (x265 info)
x265 info: frame I: 1086, Avg QP:15.45 kb/s: 25821.43
x265 info: frame P: 38115, Avg QP:16.97 kb/s: 11718.30
x265 info: frame B: 113886, Avg QP:19.08 kb/s: 3477.17
x265 info: Weighted P-Frames: Y:1.8% UV:1.4%
x265 info: consecutive B-frames: 4.5% 8.7% 3.7% 75.0% 1.2% 2.1% 0.4% 3.9% 0.1% 0.4%
x265 info: encoded 153087 frames in 118953.28s (1.29 fps), 5687.52 kb/s, Avg QP:18.53
Медиаинфо
Формат : Matroska
Версия формата : Version 4
Размер файла : 5,18 Гбайт
Продолжительность : 1 ч. 46 м.
Общий поток : 6970 Кбит/сек
Название фильма : Contagion (2011)_Encoded_by_M@kSIMus
Дата кодирования : UTC 2020-04-05 09:54:45
Программа кодирования : mkvmerge v44.0.0 ('Domino') 64-bit
Библиотека кодирования : libebml v1.3.10 + libmatroska v1.5.2
Обложка : Yes
Attachments : cover.jpg

Видео
Идентификатор : 1
Формат : HEVC
Формат/Информация : High Efficiency Video Coding
Профиль формата : Main 10@L4.1@High
Идентификатор кодека : V_MPEGH/ISO/HEVC
Продолжительность : 1 ч. 46 м.
Битрейт : 5688 Кбит/сек
Ширина : 1920 пикселей
Высота : 1080 пикселей
Соотношение сторон : 16:9
Режим частоты кадров : Постоянный
Частота кадров : 23,976 (24000/1001) кадра/сек
Цветовое пространство : YUV
Субдискретизация насыщенности : 4:2:0
Битовая глубина : 10 бит
Бит/(Пиксели*Кадры) : 0.114
Размер потока : 4,23 Гбайт (82%)
Библиотека кодирования : x265 3.2+5-354901970679:[Windows][clang 8.0.1][64 bit] 10bit
Настройки программы : cpuid=1049583 / frame-threads=5 / numa-pools=4 / wpp / no-pmode / no-pme / no-psnr / no-ssim / log-level=3 / input-csp=1 / input-res=1920x1080 / interlace=0 / total-frames=0 / level-idc=41 / high-tier=1 / uhd-bd=0 / ref=4 / allow-non-conformance / no-repeat-headers / annexb / no-aud / no-hrd / info / hash=0 / no-temporal-layers / open-gop / min-keyint=24 / keyint=240 / gop-lookahead=0 / bframes=9 / b-adapt=2 / b-pyramid / bframe-bias=0 / rc-lookahead=40 / lookahead-slices=6 / scenecut=40 / radl=0 / no-splice / no-intra-refresh / ctu=32 / min-cu-size=8 / rect / no-amp / max-tu-size=32 / tu-inter-depth=4 / tu-intra-depth=4 / limit-tu=1 / rdoq-level=1 / dynamic-rd=0.00 / no-ssim-rd / signhide / no-tskip / nr-intra=0 / nr-inter=0 / no-constrained-intra / no-strong-intra-smoothing / max-merge=5 / limit-refs=1 / no-limit-modes / me=3 / subme=7 / merange=57 / temporal-mvp / no-frame-dup / no-hme / weightp / no-weightb / no-analyze-src-pics / deblock=-3:-3 / no-sao / no-sao-non-deblock / rd=4 / selective-sao=0 / early-skip / no-rskip / no-fast-intra / no-tskip-fast / no-cu-lossless / b-intra / no-splitrd-skip / rdpenalty=0 / psy-rd=2.00 / psy-rdoq=1.00 / no-rd-refine / no-lossless / cbqpoffs=0 / crqpoffs=0 / rc=crf / crf=21.0 / qcomp=0.60 / qpstep=4 / stats-write=0 / stats-read=0 / vbv-maxrate=50000 / vbv-bufsize=50000 / vbv-init=0.9 / crf-max=0.0 / crf-min=0.0 / ipratio=1.40 / pbratio=1.30 / aq-mode=3 / aq-strength=1.00 / no-cutree / zone-count=0 / no-strict-cbr / qg-size=32 / no-rc-grain / qpmax=69 / qpmin=0 / no-const-vbv / sar=1 / overscan=0 / videoformat=5 / range=0 / colorprim=2 / transfer=2 / colormatrix=2 / chromaloc=0 / display-window=0 / cll=0,0 / min-luma=0 / max-luma=1023 / log2-max-poc-lsb=8 / vui-timing-info / vui-hrd-info / slices=1 / no-opt-qp-pps / no-opt-ref-list-length-pps / no-multi-pass-opt-rps / scenecut-bias=0.05 / no-opt-cu-delta-qp / no-aq-motion / no-hdr / no-hdr-opt / no-dhdr10-opt / no-idr-recovery-sei / analysis-reuse-level=5 / scale-factor=0 / refine-intra=0 / refine-inter=0 / refine-mv=1 / refine-ctu-distortion=0 / no-limit-sao / ctu-info=0 / no-lowpass-dct / refine-analysis-type=0 / copy-pic=1 / max-ausize-factor=1.0 / no-dynamic-refine / no-single-sei / no-hevc-aq / no-svt / no-field / qp-adaptation-range=1.00
Язык : English
Default : Да
Forced : Нет
Цветовой диапазон : Limited

Аудио #1
Идентификатор : 2
Формат : AC-3
Формат/Информация : Audio Coding 3
Коммерческое название : Dolby Digital
Идентификатор кодека : A_AC3
Продолжительность : 1 ч. 46 м.
Вид битрейта : Постоянный
Битрейт : 640 Кбит/сек
Каналы : 6 каналов
ChannelLayout : L R C LFE Ls Rs
Частота : 48,0 КГц
Частота кадров : 31,250 кадров/сек (1536 SPF)
Метод сжатия : С потерями
Размер потока : 487 Мбайт (9%)
Заголовок : Дубляж
Язык : Russian
Default : Да
Forced : Нет

Аудио #2
Идентификатор : 3
Формат : AC-3
Формат/Информация : Audio Coding 3
Коммерческое название : Dolby Digital
Идентификатор кодека : A_AC3
Продолжительность : 1 ч. 46 м.
Вид битрейта : Постоянный
Битрейт : 640 Кбит/сек
Каналы : 6 каналов
ChannelLayout : L R C LFE Ls Rs
Частота : 48,0 КГц
Частота кадров : 31,250 кадров/сек (1536 SPF)
Метод сжатия : С потерями
Размер потока : 487 Мбайт (9%)
Заголовок : Original
Язык : English
Default : Нет
Forced : Нет

Текст #1
Идентификатор : 4
Формат : UTF-8
Идентификатор кодека : S_TEXT/UTF8
Идентификатор кодека/Информация : UTF-8 Plain Text
Продолжительность : 1 ч. 40 м.
Битрейт : 2 бит/сек
ElementCount : 70
Размер потока : 2,07 Кбайт (0%)
Заголовок : Forced
Язык : Russian
Default : Да
Forced : Да

Текст #2
Идентификатор : 5
Формат : UTF-8
Идентификатор кодека : S_TEXT/UTF8
Идентификатор кодека/Информация : UTF-8 Plain Text
Продолжительность : 1 ч. 41 м.
Битрейт : 89 бит/сек
ElementCount : 1294
Размер потока : 66,7 Кбайт (0%)
Заголовок : Full
Язык : Russian
Default : Нет
Forced : Нет

Текст #3
Идентификатор : 6
Формат : UTF-8
Идентификатор кодека : S_TEXT/UTF8
Идентификатор кодека/Информация : UTF-8 Plain Text
Продолжительность : 1 ч. 45 м.
Битрейт : 71 бит/сек
ElementCount : 1330
Размер потока : 55,0 Кбайт (0%)
Заголовок : Full
Язык : English
Default : Нет
Forced : Нет

Меню
00:00:00.000 : :Chapter 1
00:04:33.356 : :Chapter 2
00:07:26.780 : :Chapter 3
00:11:08.960 : :Chapter 4
00:14:20.818 : :Chapter 5
00:16:01.043 : :Chapter 6
00:17:44.814 : :Chapter 7
00:20:15.464 : :Chapter 8
00:22:23.634 : :Chapter 9
00:24:11.909 : :Chapter 10
00:26:55.781 : :Chapter 11
00:30:31.997 : :Chapter 12
00:34:17.097 : :Chapter 13
00:36:35.026 : :Chapter 14
00:38:40.735 : :Chapter 15
00:41:28.236 : :Chapter 16
00:42:51.068 : :Chapter 17
00:46:55.146 : :Chapter 18
00:49:49.403 : :Chapter 19
00:52:00.951 : :Chapter 20
00:53:57.609 : :Chapter 21
00:57:30.364 : :Chapter 22
01:00:54.234 : :Chapter 23
01:03:22.716 : :Chapter 24
01:07:42.392 : :Chapter 25
01:10:21.259 : :Chapter 26
01:12:34.225 : :Chapter 27
01:15:35.322 : :Chapter 28
01:18:10.227 : :Chapter 29
01:22:34.032 : :Chapter 30
01:25:23.410 : :Chapter 31
01:31:28.358 : :Chapter 32
01:34:35.295 : :Chapter 33
01:36:10.556 : :Chapter 34
01:41:28.332 : :Chapter 35
Cкриншот1 Заражение / Contagion (2011) BDRip 1080p [HEVC] 10 bit от M@kSIMus
Загружается...
Cкриншот2 Заражение / Contagion (2011) BDRip 1080p [HEVC] 10 bit от M@kSIMus
Загружается...
Cкриншот3 Заражение / Contagion (2011) BDRip 1080p [HEVC] 10 bit от M@kSIMus
Загружается...
Cкриншот4 Заражение / Contagion (2011) BDRip 1080p [HEVC] 10 bit от M@kSIMus
Загружается...
Сэмпл Торрент🧲 Магнет

Кнопки "Позвать в чате" и "Спасибо" доступны только зарегистрированным/авторизованным пользователям!

Раздача обновлена!
Замена английской дорожки.

Файлы: 1
  • Contagion (2011) BDRip 1080p [HEVC] 10 bit.mkv   5.18 ГБ
Поблагодарили: 12
Brooklyn, icesnoop, illia261992, Kiran, makss333, Rexfire, sdell, serg1962, sergeich, Stigmatlazy, tiwruski, VadimM
05.04.2020  19:42:23 Admin
1 1133 408 54 5.18 ГБ

Добавление нового комментария

Добавление комментариев доступно только зарегистрированным/авторизованным пользователям.
Аватар keks
  keks  20.03.2020  14:11:15
Актуально