Регистрация / Смена пароля

💬 Мини-чат

(Сегодня) XuMuK: awesomeptaxa, handbrake устарел года 2 назад, vidcoder - однокнопочный конвертер
(Сегодня) ADVOKAT69: joker63, ✋
(Сегодня) OldGamer: joker63, ✋
(Сегодня) joker63: ADVOKAT69, Spartanec1308, OldGamer, ✋
(Сегодня) OldGamer: ADVOKAT69, ✋
(Сегодня) Spartanec1308: ADVOKAT69, ✋
(Сегодня) ADVOKAT69: OldGamer, Spartanec1308, ✋
(08.04.2020) Spartanec1308: joker63, ✋
(08.04.2020) joker63: HANNIBAL, ✋
(08.04.2020) joker63: Spartanec1308, ✋
(08.04.2020) Spartanec1308: ADVOKAT69, ✋
(08.04.2020) OldGamer: joker63, ✋
(08.04.2020) joker63: ADVOKAT69, OldGamer, ✋
(08.04.2020) OldGamer: rodina_45, эта раздача будет переделана, старую раздавать не будут
(08.04.2020) Laska020489: NoMaD, я всё равно не понимаю разницу рипованый и тех что выложены по одиночке, можно подумать что по одиночке не рипы, да какая разница? на мой взгляд что там что там - оба рипы. кодеки тоже одинаковые. так зачем ждать месяцами? фильм он и в африке фильм. мне вот проще скачать сразу уже готовую коллекцию. как по мне качество тоже отличное хоть и на видюхе.
(08.04.2020) awesomeptaxa: ADVOKAT69, спасибо
(08.04.2020) ADVOKAT69: awesomeptaxa, https://rutracker.org/forum/viewtopic.php?t=4733376
(08.04.2020) awesomeptaxa: т.е. пресеты
(08.04.2020) ADVOKAT69: joker63, Spartanec1308, ✋
(08.04.2020) awesomeptaxa: риперы, можно ли делать рип опираясь на стандартные настройки программы через которую рипую (handbrake, vidcoder), или нужно самому вручную выставлять настройки?
  • OldGamer
  • Alex302
  • alexyak
  • antaures
  • atanaj
  • brukvalub
  • max-dicker
  • mogaleksej
  • ZloyPryanik
Отправка сообщений доступно только зарегистрированным/авторизованным пользователям.
Онлайн (за 10 мин.): 9

Покахонтас 2: Путешествие в Новый Свет / Pocahontas II: Journey to a New World (1998) BDRip 1080p [HEVC] 10 bit от Mr. Fox

HEVC
10 bit
Обложка Покахонтас 2: Путешествие в Новый Свет / Pocahontas II: Journey to a New World (1998) BDRip 1080p [HEVC] 10 bit от Mr. Fox Год: 1998
Страна: США
Студия: Disneytoon Studios, Walt Disney Pictures
Жанр: Мультфильм, Мюзикл, Драма, Мелодрама
Продолжительность: 01:13:09

Режиссер: Том Эллери, Брэдли Рэймонд
В ролях: Ирен Бедард, Джим Каммингс, Донал Гибсон, Финола Хьюз, Линда Хант, Рассел Минс, Дэвид Огден Стайерз, Джин Степлтон, Билли Зейн, Джефф Беннетт

Описание: Когда новость о смерти Джона Смита достигает Америки, дочь индейского вождя Покахонтас, вместе со своим другом, енотом Мико, отправляется в трудный путь в Лондон чтобы установить мир между двумя великими землями. Однако, правитель Рэтклифф неподалеку, он пытается захватить Джеймстаун и цена для него не имеет значения, ничто не остановит его в желании оклеветать принцессу…

КиноПоиск
5.746 5565
IMDb
4.9
13035


Видео: 1920x1080, 4844 Kbps
Аудио1: AC3, 6 ch, 640 Kbps -
Русский, Дублированный
Аудио2: AC3, 6 ch, 640 Kbps -
Английский, Оригинал
Субтитры: Русские (форсированные, полные), английские

Как за пару секунд удалить ненужные аудиодорожки и субтитры (Внимание! После удаления вы не сможете поддержать раздачу)

Медиаинфо
Общее
Уникальный идентификатор : 162826380467665216790201599613932356034 (0x7A7F385E3BBBA7A32942799FB5E341C2)
Полное имя : R:\2. Pocahontas II Journey to a New World (1998) BDRip 1080p [HEVC].mkv
Формат : Matroska
Версия формата : Version 4 / Version 2
Размер файла : 3,13 Гбайт
Продолжительность : 1 ч. 13 м.
Общий поток : 6127 Кбит/сек
Название фильма : Pocahontas II: Journey to a New World (1998)
Дата кодирования : UTC 2020-03-14 08:03:39
Программа кодирования : mkvmerge v43.0.0 ('The Quartermaster') 64-bit
Библиотека кодирования : libebml v1.3.10 + libmatroska v1.5.2
Обложка : Yes
Attachments : cover.jpg

Видео
Идентификатор : 1
Формат : HEVC
Формат/Информация : High Efficiency Video Coding
Профиль формата : Main 10@L4.1@High
Идентификатор кодека : V_MPEGH/ISO/HEVC
Продолжительность : 1 ч. 13 м.
Битрейт : 4844 Кбит/сек
Ширина : 1920 пикселей
Высота : 1080 пикселей
Соотношение сторон : 16:9
Режим частоты кадров : Постоянный
Частота кадров : 23,976 (23976/1000) кадра/сек
Частота кадров в оригинале : 23,976 (24000/1001) кадра/сек
Цветовое пространство : YUV
Субдискретизация насыщенности : 4:2:0
Битовая глубина : 10 бит
Бит/(Пиксели*Кадры) : 0.097
Размер потока : 2,48 Гбайт (79%)
Библиотека кодирования : x265 3.3+1-g554c887ac:[Windows][MSVC 1924][64 bit] 10bit
Настройки программы : cpuid=1111039 / frame-threads=3 / numa-pools=12 / wpp / no-pmode / no-pme / no-psnr / no-ssim / log-level=2 / input-csp=1 / input-res=1920x1080 / interlace=0 / total-frames=97926 / level-idc=41 / high-tier=1 / uhd-bd=0 / ref=5 / no-allow-non-conformance / no-repeat-headers / annexb / no-aud / no-hrd / info / hash=0 / no-temporal-layers / open-gop / min-keyint=23 / keyint=240 / gop-lookahead=0 / bframes=10 / b-adapt=2 / b-pyramid / bframe-bias=0 / rc-lookahead=60 / lookahead-slices=4 / scenecut=40 / hist-scenecut=0 / radl=0 / no-splice / no-intra-refresh / ctu=32 / min-cu-size=8 / rect / amp / max-tu-size=32 / tu-inter-depth=4 / tu-intra-depth=4 / limit-tu=1 / rdoq-level=2 / dynamic-rd=0.00 / no-ssim-rd / signhide / no-tskip / nr-intra=0 / nr-inter=0 / no-constrained-intra / no-strong-intra-smoothing / max-merge=4 / limit-refs=2 / limit-modes / me=3 / subme=7 / merange=57 / temporal-mvp / no-frame-dup / no-hme / weightp / weightb / no-analyze-src-pics / deblock=-3:-3 / no-sao / no-sao-non-deblock / rd=6 / selective-sao=0 / no-early-skip / no-rskip / no-fast-intra / no-tskip-fast / no-cu-lossless / no-b-intra / no-splitrd-skip / rdpenalty=0 / psy-rd=2.00 / psy-rdoq=1.00 / no-rd-refine / no-lossless / cbqpoffs=0 / crqpoffs=0 / rc=crf / crf=20.0 / qcomp=0.65 / qpstep=4 / stats-write=0 / stats-read=0 / vbv-maxrate=50000 / vbv-bufsize=50000 / vbv-init=0.9 / crf-max=0.0 / crf-min=0.0 / ipratio=1.40 / pbratio=1.30 / aq-mode=1 / aq-strength=1.00 / no-cutree / zone-count=0 / no-strict-cbr / qg-size=32 / no-rc-grain / qpmax=69 / qpmin=0 / no-const-vbv / sar=1 / overscan=0 / videoformat=5 / range=0 / colorprim=1 / transfer=1 / colormatrix=1 / chromaloc=0 / display-window=0 / cll=0,0 / min-luma=0 / max-luma=1023 / log2-max-poc-lsb=8 / vui-timing-info / vui-hrd-info / slices=1 / no-opt-qp-pps / no-opt-ref-list-length-pps / no-multi-pass-opt-rps / scenecut-bias=0.05 / hist-threshold=0.01 / no-opt-cu-delta-qp / no-aq-motion / no-hdr10 / no-hdr10-opt / no-dhdr10-opt / no-idr-recovery-sei / analysis-reuse-level=0 / analysis-save-reuse-level=0 / analysis-load-reuse-level=0 / scale-factor=0 / refine-intra=0 / refine-inter=0 / refine-mv=1 / refine-ctu-distortion=0 / no-limit-sao / ctu-info=0 / no-lowpass-dct / refine-analysis-type=0 / copy-pic=1 / max-ausize-factor=1.0 / no-dynamic-refine / no-single-sei / no-hevc-aq / no-svt / no-field / qp-adaptation-range=1.00 / no-scenecut-aware-qpconformance-window-offsets / right=0 / bottom=0
Default : Да
Forced : Нет
Цветовой диапазон : Limited
Основные цвета : BT.709
Характеристики трансфера : BT.709
Коэффициенты матрицы : BT.709

Аудио #1
Идентификатор : 2
Формат : AC-3
Формат/Информация : Audio Coding 3
Идентификатор кодека : A_AC3
Продолжительность : 1 ч. 13 м.
Вид битрейта : Постоянный
Битрейт : 640 Кбит/сек
Каналы : 6 каналов
Расположение каналов : Front: L C R, Side: L R, LFE
Частота : 48,0 КГц
Частота кадров : 31,250 кадров/сек (1536 SPF)
Битовая глубина : 16 бит
Метод сжатия : С потерями
Размер потока : 335 Мбайт (10%)
Заголовок : Dub
Язык : Russian
ServiceKind/String : Complete Main
Default : Да
Forced : Нет

Аудио #2
Идентификатор : 3
Формат : AC-3
Формат/Информация : Audio Coding 3
Идентификатор кодека : A_AC3
Продолжительность : 1 ч. 13 м.
Вид битрейта : Постоянный
Битрейт : 640 Кбит/сек
Каналы : 6 каналов
Расположение каналов : Front: L C R, Side: L R, LFE
Частота : 48,0 КГц
Частота кадров : 31,250 кадров/сек (1536 SPF)
Битовая глубина : 16 бит
Метод сжатия : С потерями
Размер потока : 335 Мбайт (10%)
Заголовок : Original
Язык : English
ServiceKind/String : Complete Main
Default : Нет
Forced : Нет

Текст #1
Идентификатор : 4
Формат : UTF-8
Идентификатор кодека : S_TEXT/UTF8
Идентификатор кодека/Информация : UTF-8 Plain Text
Продолжительность : 44 м. 51 с.
Битрейт : 0 бит/сек
ElementCount : 5
Размер потока : 65,0 байт (0%)
Заголовок : Forced
Язык : Russian
Default : Да
Forced : Да

Текст #2
Идентификатор : 5
Формат : UTF-8
Идентификатор кодека : S_TEXT/UTF8
Идентификатор кодека/Информация : UTF-8 Plain Text
Продолжительность : 1 ч. 6 м.
Битрейт : 70 бит/сек
ElementCount : 694
Размер потока : 34,3 Кбайт (0%)
Язык : Russian
Default : Нет
Forced : Нет

Текст #3
Идентификатор : 6
Формат : UTF-8
Идентификатор кодека : S_TEXT/UTF8
Идентификатор кодека/Информация : UTF-8 Plain Text
Продолжительность : 1 ч. 10 м.
Битрейт : 57 бит/сек
ElementCount : 915
Размер потока : 30,1 Кбайт (0%)
Язык : English
Default : Нет
Forced : Нет

Меню
00:00:00.000 : en:1. The Downfall Of John Smith
00:02:53.298 : en:2. Main Title/Winter Fun
00:05:57.107 : en:3. "Where Do I Go From Here"
00:09:32.071 : en:4. Tensions Mount
00:12:31.668 : en:5. A Gift Of Peace
00:15:27.593 : en:6. Grandmother Willow
00:17:40.518 : en:7. Saying Goodbye
00:21:18.319 : en:8. Stowaways
00:25:42.124 : en:9. "What A Day In London"
00:31:23.632 : en:10. Mrs. Jenkins
00:33:28.173 : en:11. Ratcliffe Sets A Trap
00:35:44.976 : en:12. "Wait 'Til He Sees You"
00:40:57.580 : en:13. The Hunt Ball
00:45:17.882 : en:14. "Things Are Not What They Appear"
00:47:53.788 : en:15. Savage Behavior
00:49:34.680 : en:16. A Mysterious Stranger
00:51:09.525 : en:17. A Daring Rescue
00:55:48.345 : en:18. Reprise: "Where Do I Go From Here"
00:58:09.319 : en:19. Audience With A Princess
00:59:50.337 : en:20. Stopping The Armada
01:03:31.349 : en:21. Different Paths
01:05:55.285 : en:22. Honoring The Heart
01:07:35.134 : en:23. "Between Two Worlds"/End Credits
Cкриншот1 Покахонтас 2: Путешествие в Новый Свет / Pocahontas II: Journey to a New World (1998) BDRip 1080p [HEVC] 10 bit от Mr. Fox
Загружается...
Cкриншот2 Покахонтас 2: Путешествие в Новый Свет / Pocahontas II: Journey to a New World (1998) BDRip 1080p [HEVC] 10 bit от Mr. Fox
Загружается...
Cкриншот3 Покахонтас 2: Путешествие в Новый Свет / Pocahontas II: Journey to a New World (1998) BDRip 1080p [HEVC] 10 bit от Mr. Fox
Загружается...
Cкриншот4 Покахонтас 2: Путешествие в Новый Свет / Pocahontas II: Journey to a New World (1998) BDRip 1080p [HEVC] 10 bit от Mr. Fox
Загружается...
Сэмпл Торрент🧲 Магнет

Кнопки "Позвать в чате" и "Спасибо" доступны только зарегистрированным/авторизованным пользователям!

Файлы: 1
  • 2. Pocahontas II Journey to a New World (1998) BDRip 1080p [HEVC].mkv   3.13 ГБ
Поблагодарили: 2
LastSurviv0r, makss333
18.03.2020  19:52:57 Admin
0 17 1 0 3.13 ГБ

Добавление нового комментария

Добавление комментариев доступно только зарегистрированным/авторизованным пользователям.