Регистрация / Смена пароля

💬 Мини-чат

(Сегодня) XuMuK: awesomeptaxa, handbrake устарел года 2 назад, vidcoder - однокнопочный конвертер
(Сегодня) ADVOKAT69: joker63, ✋
(Сегодня) OldGamer: joker63, ✋
(Сегодня) joker63: ADVOKAT69, Spartanec1308, OldGamer, ✋
(Сегодня) OldGamer: ADVOKAT69, ✋
(Сегодня) Spartanec1308: ADVOKAT69, ✋
(Сегодня) ADVOKAT69: OldGamer, Spartanec1308, ✋
(08.04.2020) Spartanec1308: joker63, ✋
(08.04.2020) joker63: HANNIBAL, ✋
(08.04.2020) joker63: Spartanec1308, ✋
(08.04.2020) Spartanec1308: ADVOKAT69, ✋
(08.04.2020) OldGamer: joker63, ✋
(08.04.2020) joker63: ADVOKAT69, OldGamer, ✋
(08.04.2020) OldGamer: rodina_45, эта раздача будет переделана, старую раздавать не будут
(08.04.2020) Laska020489: NoMaD, я всё равно не понимаю разницу рипованый и тех что выложены по одиночке, можно подумать что по одиночке не рипы, да какая разница? на мой взгляд что там что там - оба рипы. кодеки тоже одинаковые. так зачем ждать месяцами? фильм он и в африке фильм. мне вот проще скачать сразу уже готовую коллекцию. как по мне качество тоже отличное хоть и на видюхе.
(08.04.2020) awesomeptaxa: ADVOKAT69, спасибо
(08.04.2020) ADVOKAT69: awesomeptaxa, https://rutracker.org/forum/viewtopic.php?t=4733376
(08.04.2020) awesomeptaxa: т.е. пресеты
(08.04.2020) ADVOKAT69: joker63, Spartanec1308, ✋
(08.04.2020) awesomeptaxa: риперы, можно ли делать рип опираясь на стандартные настройки программы через которую рипую (handbrake, vidcoder), или нужно самому вручную выставлять настройки?
  • OldGamer
  • bt_ua
  • Koupets
  • Maxim
  • Nuclear70
  • QWER
  • Schumer
Отправка сообщений доступно только зарегистрированным/авторизованным пользователям.
Онлайн (за 10 мин.): 7

Апокалипсис / Apocalypto (2006) BDRip 1080p [HEVC] 10 bit от Spartanec1308

HEVC
10 bit
Обложка Апокалипсис / Apocalypto (2006) BDRip 1080p [HEVC] 10 bit от Spartanec1308 Год: 2006
Страна: США
Студия: Icon Entertainmnet International, Icon Productions, Touchstone Pictures
Жанр: Приключения, Боевик, История, Драма
Продолжительность: 02:18:21

Режиссер: Мэл Гибсон
В ролях: Руди Янгблад, Далия Эрнандез, Джонатан Брюэр, Моррис Бердйеллоухэд, Карлос Эмилио Баэс, Рамирез Амилкар, Израэл Контрерас, Израэль Риос, Мария Исабель Диас, Эспиридион Акоста Каче, Майра Сербуло, Иазуа Лариос, Лорена Эрнандес, Итандехуи Гутьеррез, Саюри Гутьеррез, Хирам Сото, Хосе Суарез, Рауль Трухильо, Херардо Тарасена, Родольфо Паласиос

Описание: В фильме показана жизнь цивилизации майя до прихода испанских конкистадоров: жестокие войны с соседними племенами, человеческие жертвоприношения, загадочные мистические ритуалы. В один день рушится мир индейца по имени Лапа Ягуара. Его деревню захватывает соседнее племя, уничтожая хижины, забирая местных жителей в плен. Его ведут в город, чтобы принести в жертву богам. Перед лицом неминуемой смерти Лапа Ягуара должен побороть свои самые сильные страхи и совершить отчаянный рывок, чтобы спасти то, что ему дорого…

КиноПоиск
7.961 135052
IMDb
7.8
279137


Видео: 1920x1036, 12,0 Мбит/сек, 0.253 бит/(Пиксели*Кадры), 23,976 кадр/сек, HEVC (Main10@L.4.1@High) 10 бит
Аудио1: AC3, 6 ch, 448 Kbps -
Русский, Многоголосый (Позитив)
Аудио2: AC3, 6 ch, 448 Kbps - Майя, Оригинал
Субтитры: Русские, английские

Как за пару секунд удалить ненужные аудиодорожки и субтитры (Внимание! После удаления вы не сможете поддержать раздачу)

Лог (x265 info)
x265 [info]: frame I: 2508, Avg QP:17.52 kb/s: 47795.99
x265 [info]: frame P: 48370, Avg QP:18.98 kb/s: 23615.26
x265 [info]: frame B: 148155, Avg QP:21.35 kb/s: 7662.13
x265 [info]: Weighted P-Frames: Y:7.7% UV:5.9%
x265 [info]: Weighted B-Frames: Y:8.6% UV:5.9%
x265 [info]: consecutive B-frames: 12.7% 9.0% 7.9% 42.3% 8.3% 16.9% 1.2% 1.1% 0.1% 0.1% 0.1% 0.2% 0.2%

encoded 199033 frames in 537597.06s (0.37 fps), 12044.86 kb/s, Avg QP:20.73
Медиаинфо
Формат : Matroska
Версия формата : Version 4
Размер файла : 12,4 Гбайт
Продолжительность : 2 ч. 18 м.
Общий поток : 12,9 Мбит/сек
Название фильма : by Spartanec
Дата кодирования : UTC 2020-03-13 09:36:55
Программа кодирования : mkvmerge v7.0.0 ('Where We Going') 64bit built on Jun 9 2014 15:16:27
Библиотека кодирования : libebml v1.3.0 + libmatroska v1.4.1
Обложка : Yes
Attachments : cover.jpg

Видео
Идентификатор : 1
Формат : HEVC
Формат/Информация : High Efficiency Video Coding
Профиль формата : Main 10@L4.1@High
Идентификатор кодека : V_MPEGH/ISO/HEVC
Продолжительность : 2 ч. 18 м.
Битрейт : 12,0 Мбит/сек
Ширина : 1920 пикселей
Высота : 1036 пикселей
Соотношение сторон : 1,85:1
Режим частоты кадров : Постоянный
Частота кадров : 23,976 (23976/1000) кадра/сек
Частота кадров в оригинале : 23,976 (24000/1001) кадра/сек
Цветовое пространство : YUV
Субдискретизация насыщенности : 4:2:0
Битовая глубина : 10 бит
Бит/(Пиксели*Кадры) : 0.253
Размер потока : 11,6 Гбайт (94%)
Библиотека кодирования : x265 3.2.1+1-b5c86a64bbbe:[Windows][GCC 9.2.0][64 bit] 10bit
Настройки программы : cpuid=1111039 / frame-threads=4 / numa-pools=16 / wpp / no-pmode / no-pme / no-psnr / no-ssim / log-level=2 / input-csp=1 / input-res=1920x1036 / interlace=0 / total-frames=199033 / level-idc=41 / high-tier=1 / uhd-bd=0 / ref=5 / no-allow-non-conformance / no-repeat-headers / annexb / no-aud / no-hrd / info / hash=0 / no-temporal-layers / open-gop / min-keyint=23 / keyint=240 / gop-lookahead=0 / bframes=12 / b-adapt=2 / b-pyramid / bframe-bias=0 / rc-lookahead=60 / lookahead-slices=1 / scenecut=40 / radl=0 / no-splice / no-intra-refresh / ctu=32 / min-cu-size=8 / rect / amp / max-tu-size=32 / tu-inter-depth=4 / tu-intra-depth=4 / limit-tu=1 / rdoq-level=1 / dynamic-rd=0.00 / no-ssim-rd / signhide / no-tskip / nr-intra=0 / nr-inter=0 / no-constrained-intra / no-strong-intra-smoothing / max-merge=5 / limit-refs=0 / no-limit-modes / me=3 / subme=7 / merange=57 / temporal-mvp / no-hme / weightp / weightb / no-analyze-src-pics / deblock=-2:-2 / no-sao / no-sao-non-deblock / rd=6 / selective-sao=0 / no-early-skip / no-rskip / no-fast-intra / no-tskip-fast / no-cu-lossless / b-intra / no-splitrd-skip / rdpenalty=0 / psy-rd=2.00 / psy-rdoq=1.00 / no-rd-refine / no-lossless / cbqpoffs=0 / crqpoffs=0 / rc=crf / crf=19.5 / qcomp=0.70 / qpstep=4 / stats-write=0 / stats-read=0 / vbv-maxrate=50000 / vbv-bufsize=50000 / vbv-init=0.9 / crf-max=0.0 / crf-min=0.0 / ipratio=1.40 / pbratio=1.30 / aq-mode=2 / aq-strength=1.00 / no-cutree / zone-count=0 / no-strict-cbr / qg-size=32 / no-rc-grain / qpmax=69 / qpmin=0 / no-const-vbv / sar=1 / overscan=0 / videoformat=5 / range=0 / colorprim=1 / transfer=1 / colormatrix=1 / chromaloc=0 / display-window=0 / cll=0,0 / min-luma=0 / max-luma=1023 / log2-max-poc-lsb=8 / vui-timing-info / vui-hrd-info / slices=1 / no-opt-qp-pps / no-opt-ref-list-length-pps / no-multi-pass-opt-rps / scenecut-bias=0.05 / no-opt-cu-delta-qp / no-aq-motion / no-hdr / no-hdr-opt / no-dhdr10-opt / no-idr-recovery-sei / analysis-reuse-level=5 / scale-factor=0 / refine-intra=0 / refine-inter=0 / refine-mv=0 / refine-ctu-distortion=0 / no-limit-sao / ctu-info=0 / no-lowpass-dct / refine-analysis-type=0 / copy-pic=1 / max-ausize-factor=1.0 / no-dynamic-refine / no-single-sei / no-hevc-aq / no-svt / no-field / qp-adaptation-range=1.00
Default : Да
Forced : Нет
Цветовой диапазон : Limited
Основные цвета : BT.709
Характеристики трансфера : BT.709
Коэффициенты матрицы : BT.709

Аудио #1
Идентификатор : 2
Формат : AC-3
Формат/Информация : Audio Coding 3
Коммерческое название : Dolby Digital
Идентификатор кодека : A_AC3
Продолжительность : 2 ч. 18 м.
Вид битрейта : Постоянный
Битрейт : 448 Кбит/сек
Каналы : 6 каналов
Channel layout : L R C LFE Ls Rs
Частота : 48,0 КГц
Частота кадров : 31,250 кадров/сек (1536 SPF)
Битовая глубина : 16 бит
Метод сжатия : С потерями
Размер потока : 443 Мбайт (3%)
Заголовок : Профессиональный многоголосый (Позитив)
Язык : Russian
ServiceKind/ : Complete Main
Default : Да
Forced : Нет

Аудио #2
Идентификатор : 3
Формат : AC-3
Формат/Информация : Audio Coding 3
Коммерческое название : Dolby Digital
Идентификатор кодека : A_AC3
Продолжительность : 2 ч. 18 м.
Вид битрейта : Постоянный
Битрейт : 384 Кбит/сек
Каналы : 6 каналов
Channel layout : L R C LFE Ls Rs
Частота : 48,0 КГц
Частота кадров : 31,250 кадров/сек (1536 SPF)
Битовая глубина : 16 бит
Метод сжатия : С потерями
Размер потока : 380 Мбайт (3%)
Заголовок : Майя
ServiceKind/ : Complete Main
Default : Нет
Forced : Нет

Текст #1
Идентификатор : 4
Формат : UTF-8
Идентификатор кодека : S_TEXT/UTF8
Идентификатор кодека/Информация : UTF-8 Plain Text
Продолжительность : 2 ч. 8 м.
Битрейт : 17 бит/сек
ElementCount : 447
Размер потока : 16,2 Кбайт (0%)
Заголовок : Русские
Язык : Russian
Default : Нет
Forced : Нет

Текст #2
Идентификатор : 5
Формат : UTF-8
Идентификатор кодека : S_TEXT/UTF8
Идентификатор кодека/Информация : UTF-8 Plain Text
Продолжительность : 2 ч. 8 м.
Битрейт : 10 бит/сек
ElementCount : 447
Размер потока : 10,1 Кбайт (0%)
Заголовок : Английские
Язык : English
Default : Нет
Forced : Нет

Меню
00:00:00.000 : :Chapter 01
00:08:19.332 : :Chapter 02
00:13:03.741 : :Chapter 03
00:19:17.281 : :Chapter 04
00:23:09.721 : :Chapter 05
00:32:34.243 : :Chapter 06
00:37:45.179 : :Chapter 07
00:48:28.655 : :Chapter 08
00:56:39.145 : :Chapter 09
01:00:53.775 : :Chapter 10
01:09:15.109 : :Chapter 11
01:18:12.938 : :Chapter 12
01:23:15.782 : :Chapter 13
01:32:12.276 : :Chapter 14
01:43:07.723 : :Chapter 15
01:50:14.983 : :Chapter 16
01:57:45.683 : :Chapter 17
02:08:06.470 : :Chapter 18
02:09:49.239 : :Chapter 19
02:18:21.084 : :Chapter 20
Cкриншот1 Апокалипсис / Apocalypto (2006) BDRip 1080p [HEVC] 10 bit от Spartanec1308
Загружается...
Cкриншот2 Апокалипсис / Apocalypto (2006) BDRip 1080p [HEVC] 10 bit от Spartanec1308
Загружается...
Cкриншот3 Апокалипсис / Apocalypto (2006) BDRip 1080p [HEVC] 10 bit от Spartanec1308
Загружается...
Cкриншот4 Апокалипсис / Apocalypto (2006) BDRip 1080p [HEVC] 10 bit от Spartanec1308
Загружается...
Сэмпл Торрент🧲 Магнет

Кнопки "Позвать в чате" и "Спасибо" доступны только зарегистрированным/авторизованным пользователям!

Файлы: 1
  • Апокалипсис (2006) BDRip 1080p [HEVC] 10bit by Spartanec.mkv   12.45 ГБ
Поблагодарили: 10
animen67, aquarius, GIS88, joker63, Kilop77, makss333, maximka, NoMaD, sergeyst, Херсонец
13.03.2020  18:34:57 Spartanec1308
3 66 0 0 12.45 ГБ

Добавление нового комментария

Добавление комментариев доступно только зарегистрированным/авторизованным пользователям.
Аватар NoMaD
  NoMaD  13.03.2020  19:32:54
Spartanec1308 писал(а):
С горем пополам....
ну ладно хоть так)
Аватар Spartanec1308
  Spartanec1308  13.03.2020  19:25:59
NoMaD писал(а):
Домучал наконец то))) Надеюсь что в этот раз без происшествий обошлось)))
С горем пополам....
Аватар NoMaD
  NoMaD  13.03.2020  18:54:46
Домучал наконец то))) Надеюсь что в этот раз без происшествий обошлось)))