Регистрация / Смена пароля

💬 Мини-чат

(Сегодня) XuMuK: awesomeptaxa, handbrake устарел года 2 назад, vidcoder - однокнопочный конвертер
(Сегодня) ADVOKAT69: joker63, ✋
(Сегодня) OldGamer: joker63, ✋
(Сегодня) joker63: ADVOKAT69, Spartanec1308, OldGamer, ✋
(Сегодня) OldGamer: ADVOKAT69, ✋
(Сегодня) Spartanec1308: ADVOKAT69, ✋
(Сегодня) ADVOKAT69: OldGamer, Spartanec1308, ✋
(08.04.2020) Spartanec1308: joker63, ✋
(08.04.2020) joker63: HANNIBAL, ✋
(08.04.2020) joker63: Spartanec1308, ✋
(08.04.2020) Spartanec1308: ADVOKAT69, ✋
(08.04.2020) OldGamer: joker63, ✋
(08.04.2020) joker63: ADVOKAT69, OldGamer, ✋
(08.04.2020) OldGamer: rodina_45, эта раздача будет переделана, старую раздавать не будут
(08.04.2020) Laska020489: NoMaD, я всё равно не понимаю разницу рипованый и тех что выложены по одиночке, можно подумать что по одиночке не рипы, да какая разница? на мой взгляд что там что там - оба рипы. кодеки тоже одинаковые. так зачем ждать месяцами? фильм он и в африке фильм. мне вот проще скачать сразу уже готовую коллекцию. как по мне качество тоже отличное хоть и на видюхе.
(08.04.2020) awesomeptaxa: ADVOKAT69, спасибо
(08.04.2020) ADVOKAT69: awesomeptaxa, https://rutracker.org/forum/viewtopic.php?t=4733376
(08.04.2020) awesomeptaxa: т.е. пресеты
(08.04.2020) ADVOKAT69: joker63, Spartanec1308, ✋
(08.04.2020) awesomeptaxa: риперы, можно ли делать рип опираясь на стандартные настройки программы через которую рипую (handbrake, vidcoder), или нужно самому вручную выставлять настройки?
  • OldGamer
  • CarbitM
  • DayLight
  • joker1001
  • Laska020489
  • Vanya Vetrov
  • VovChik74
  • yri150461
Отправка сообщений доступно только зарегистрированным/авторизованным пользователям.
Онлайн (за 10 мин.): 8

Малыш и Карлсон (1968) BDRip 1080p [HEVC] 10 bit от ADVOKAT69

HEVC
10 bit
Обложка Малыш и Карлсон (1968) BDRip 1080p [HEVC] 10 bit от ADVOKAT69 Год: 1968
Страна: СССР
Студия: Союзмультфильм
Жанр: Мультфильм, Короткометражка, Комедия
Продолжительность: 00:18:38

Режиссер: Борис Степанцев, Евгений Райковский
В ролях: Клара Румянова, Василий Ливанов

Описание: Всем известная история Малыша (который очень хотел собаку) и его друга, Карлсона, который живет на крыше.

КиноПоиск
8.447 61083
IMDb
8.1
2374


Исходник: Blu-Ray
Видео: 1440x1080, 5733 Kbps
Аудио: AC3, 6 ch, 448 Kbps - Русский, Оригинал
Субтитры: нет

Медиаинфо
Общее
Уникальный идентификатор : 235529570403364467086260871638801220243 (0xB1315861D5DE7A38A99B4E5D90308293)
Полное имя : G:\Мультфильмы\Малыш и Карлсон\Малыш и Карлсон (1968).mkv
Формат : Matroska
Версия формата : Version 2
Размер файла : 841 Мбайт
Продолжительность : 18 м. 38 с.
Общий поток : 6307 Кбит/сек
Дата кодирования : UTC 2020-03-12 21:54:39
Программа кодирования : mkvmerge v7.8.0 ('River Man') 32bit built on Apr 3 2015 12:11:22
Библиотека кодирования : libebml v1.3.1 + libmatroska v1.4.2

Видео
Идентификатор : 1
Формат : HEVC
Формат/Информация : High Efficiency Video Coding
Профиль формата : Main 10@L4.1@Main
Идентификатор кодека : V_MPEGH/ISO/HEVC
Продолжительность : 18 м. 38 с.
Битрейт : 5733 Кбит/сек
Ширина : 1440 пикселей
Высота : 1080 пикселей
Соотношение сторон : 4:3
Режим частоты кадров : Постоянный
Частота кадров : 25,000 кадров/сек
Цветовое пространство : YUV
Субдискретизация насыщенности : 4:2:0
Битовая глубина : 10 бит
Бит/(Пиксели*Кадры) : 0.147
Размер потока : 765 Мбайт (91%)
Библиотека кодирования : x265 1.5+88-0e89af0781ee:[Windows][GCC 4.8.2][64 bit] 16bpp
Настройки программы : wpp / ctu=64 / min-cu-size=8 / max-tu-size=32 / tu-intra-depth=1 / tu-inter-depth=1 / me=2 / subme=7 / merange=57 / no-rect / no-amp / max-merge=3 / temporal-mvp / no-early-skip / rdpenalty=0 / no-tskip / no-tskip-fast / strong-intra-smoothing / no-lossless / no-cu-lossless / no-constrained-intra / no-fast-intra / open-gop / no-temporal-layers / interlace=0 / keyint=240 / min-keyint=24 / scenecut=40 / rc-lookahead=30 / bframes=5 / bframe-bias=0 / b-adapt=2 / ref=5 / no-weightp / no-weightb / aq-mode=1 / aq-strength=1.00 / cbqpoffs=0 / crqpoffs=0 / rd=4 / psy-rd=0.30 / psy-rdoq=1.00 / signhide / lft / sao / no-sao-non-deblock / b-pyramid / cutree / rc=crf / crf=20.0 / qcomp=0.60 / qpmin=0 / qpmax=51 / qpstep=4 / vbv-maxrate=20000 / vbv-bufsize=20000 / crf-max=0.0 / ipratio=1.40 / pbratio=1.30
Default : Да
Forced : Нет
Цветовой диапазон : Full

Аудио
Идентификатор : 2
Формат : AC-3
Формат/Информация : Audio Coding 3
Коммерческое название : Dolby Digital
Идентификатор кодека : A_AC3
Продолжительность : 18 м. 38 с.
Вид битрейта : Постоянный
Битрейт : 448 Кбит/сек
Каналы : 6 каналов
ChannelLayout : L R C LFE Ls Rs
Частота : 48,0 КГц
Частота кадров : 31,250 кадров/сек (1536 SPF)
Метод сжатия : С потерями
Размер потока : 59,8 Мбайт (7%)
ServiceKind/String : Complete Main
Default : Да
Forced : Нет
Cкриншот1 Малыш и Карлсон (1968) BDRip 1080p [HEVC] 10 bit от ADVOKAT69
Загружается...
Cкриншот2 Малыш и Карлсон (1968) BDRip 1080p [HEVC] 10 bit от ADVOKAT69
Загружается...
Cкриншот3 Малыш и Карлсон (1968) BDRip 1080p [HEVC] 10 bit от ADVOKAT69
Загружается...
Cкриншот4 Малыш и Карлсон (1968) BDRip 1080p [HEVC] 10 bit от ADVOKAT69
Загружается...
Сэмпл Торрент🧲 Магнет

Кнопки "Позвать в чате" и "Спасибо" доступны только зарегистрированным/авторизованным пользователям!

Файлы: 1
  • Малыш и Карлсон (1968).mkv   841.22 МБ
Поблагодарили: 9
and50, animen67, antaures, Brooklyn, Chance, cnn, LastSurviv0r, NRK888, olegvp
13.03.2020  14:49:10 ADVOKAT69
1 72 20 1 841.22 МБ

Добавление нового комментария

Добавление комментариев доступно только зарегистрированным/авторизованным пользователям.
Аватар Brooklyn
  Brooklyn  15.03.2020  09:43:25
Спасибо, жду вторую часть.