Регистрация / Смена пароля

💬 Мини-чат

(Сегодня) XuMuK: awesomeptaxa, handbrake устарел года 2 назад, vidcoder - однокнопочный конвертер
(Сегодня) ADVOKAT69: joker63, ✋
(Сегодня) OldGamer: joker63, ✋
(Сегодня) joker63: ADVOKAT69, Spartanec1308, OldGamer, ✋
(Сегодня) OldGamer: ADVOKAT69, ✋
(Сегодня) Spartanec1308: ADVOKAT69, ✋
(Сегодня) ADVOKAT69: OldGamer, Spartanec1308, ✋
(08.04.2020) Spartanec1308: joker63, ✋
(08.04.2020) joker63: HANNIBAL, ✋
(08.04.2020) joker63: Spartanec1308, ✋
(08.04.2020) Spartanec1308: ADVOKAT69, ✋
(08.04.2020) OldGamer: joker63, ✋
(08.04.2020) joker63: ADVOKAT69, OldGamer, ✋
(08.04.2020) OldGamer: rodina_45, эта раздача будет переделана, старую раздавать не будут
(08.04.2020) Laska020489: NoMaD, я всё равно не понимаю разницу рипованый и тех что выложены по одиночке, можно подумать что по одиночке не рипы, да какая разница? на мой взгляд что там что там - оба рипы. кодеки тоже одинаковые. так зачем ждать месяцами? фильм он и в африке фильм. мне вот проще скачать сразу уже готовую коллекцию. как по мне качество тоже отличное хоть и на видюхе.
(08.04.2020) awesomeptaxa: ADVOKAT69, спасибо
(08.04.2020) ADVOKAT69: awesomeptaxa, https://rutracker.org/forum/viewtopic.php?t=4733376
(08.04.2020) awesomeptaxa: т.е. пресеты
(08.04.2020) ADVOKAT69: joker63, Spartanec1308, ✋
(08.04.2020) awesomeptaxa: риперы, можно ли делать рип опираясь на стандартные настройки программы через которую рипую (handbrake, vidcoder), или нужно самому вручную выставлять настройки?
  • OldGamer
  • abtr
  • albina63
  • brukvalub
  • Goodcat
  • PapiRUS45
  • Savager
Отправка сообщений доступно только зарегистрированным/авторизованным пользователям.
Онлайн (за 10 мин.): 7

Каникулы в Простоквашино (1980) BDRip 1080p [HEVC] 10 bit от ADVOKAT69

HEVC
10 bit
Обложка Каникулы в Простоквашино (1980) BDRip 1080p [HEVC] 10 bit от ADVOKAT69 Год: 1980
Страна: СССР
Жанр: Мультфильм, Короткометражка, Семейный
Продолжительность: 00:17:58

Режиссер: Владимир Попов
В ролях: Олег Табаков, Лев Дуров, Мария Виноградова, Герман Качин, Валентина Талызина, Борис Новиков

Описание: Заболевший дядя Федор был увезен в первом мультфильме родителями в город, а заблудшая на участок корова стала давать огромное количество молока. Шарик и кот Матроскин вяло поругивались, но жили в целом мирно.А тем временем мама решила поехать на курорт, чтобы износить четыре вечерних платья, а на вокзале дядя Федор сбежал и укатил в Простоквашино к своим старым друзьям. Шарику прислали фоторужье, Корова родила теленка, которого Шарик учил служить. Много было веселых и славных событий, а под конец и мама приехала с папой. Если бы у нее была вторая жизнь, она бы ее провела в Простоквашино.

КиноПоиск
8.72 64873
IMDb
8.3
2130


Исходник: Blu-Ray
Видео: 1424x1080, 3542 Kbps
Аудио: AC3, 6 ch, 448 Kbps - Русский, Оригинал
Субтитры: нет

Медиаинфо
Общее
Уникальный идентификатор : 194604874908873807481276205384544892126 (0x9267891C7F1F8FD1A4449F7B2D1D34DE)
Полное имя : G:\Мультфильмы\Трое из Простоквашино\Каникулы в Простоквашино (1980).mkv
Формат : Matroska
Версия формата : Version 2
Размер файла : 524 Мбайт
Продолжительность : 17 м. 58 с.
Общий поток : 4071 Кбит/сек
Дата кодирования : UTC 2020-03-09 18:24:30
Программа кодирования : mkvmerge v7.8.0 ('River Man') 32bit built on Apr 3 2015 12:11:22
Библиотека кодирования : libebml v1.3.1 + libmatroska v1.4.2

Видео
Идентификатор : 1
Формат : HEVC
Формат/Информация : High Efficiency Video Coding
Профиль формата : Main 10@L4.1@Main
Идентификатор кодека : V_MPEGH/ISO/HEVC
Продолжительность : 17 м. 58 с.
Битрейт : 3542 Кбит/сек
Ширина : 1424 пикселя
Высота : 1080 пикселей
Соотношение сторон : 4:3
Режим частоты кадров : Постоянный
Частота кадров : 25,000 кадров/сек
Цветовое пространство : YUV
Субдискретизация насыщенности : 4:2:0
Битовая глубина : 10 бит
Бит/(Пиксели*Кадры) : 0.092
Размер потока : 456 Мбайт (87%)
Библиотека кодирования : x265 1.5+88-0e89af0781ee:[Windows][GCC 4.8.2][64 bit] 16bpp
Настройки программы : wpp / ctu=64 / min-cu-size=8 / max-tu-size=32 / tu-intra-depth=1 / tu-inter-depth=1 / me=2 / subme=7 / merange=57 / no-rect / no-amp / max-merge=3 / temporal-mvp / no-early-skip / rdpenalty=0 / no-tskip / no-tskip-fast / strong-intra-smoothing / no-lossless / no-cu-lossless / no-constrained-intra / no-fast-intra / open-gop / no-temporal-layers / interlace=0 / keyint=240 / min-keyint=24 / scenecut=40 / rc-lookahead=30 / bframes=5 / bframe-bias=0 / b-adapt=2 / ref=5 / weightp / no-weightb / aq-mode=1 / aq-strength=1.00 / cbqpoffs=0 / crqpoffs=0 / rd=4 / psy-rd=0.30 / psy-rdoq=1.00 / signhide / lft / sao / no-sao-non-deblock / b-pyramid / cutree / rc=crf / crf=20.0 / qcomp=0.60 / qpmin=0 / qpmax=51 / qpstep=4 / vbv-maxrate=20000 / vbv-bufsize=20000 / crf-max=0.0 / ipratio=1.40 / pbratio=1.30
Default : Да
Forced : Нет
Цветовой диапазон : Full

Аудио
Идентификатор : 2
Формат : AC-3
Формат/Информация : Audio Coding 3
Коммерческое название : Dolby Digital
Идентификатор кодека : A_AC3
Продолжительность : 17 м. 58 с.
Вид битрейта : Постоянный
Битрейт : 448 Кбит/сек
Каналы : 6 каналов
ChannelLayout : L R C LFE Ls Rs
Частота : 48,0 КГц
Частота кадров : 31,250 кадров/сек (1536 SPF)
Метод сжатия : С потерями
Размер потока : 57,6 Мбайт (11%)
ServiceKind/String : Complete Main
Default : Да
Forced : Нет
Cкриншот1 Каникулы в Простоквашино (1980) BDRip 1080p [HEVC] 10 bit от ADVOKAT69
Загружается...
Cкриншот2 Каникулы в Простоквашино (1980) BDRip 1080p [HEVC] 10 bit от ADVOKAT69
Загружается...
Cкриншот3 Каникулы в Простоквашино (1980) BDRip 1080p [HEVC] 10 bit от ADVOKAT69
Загружается...
Cкриншот4 Каникулы в Простоквашино (1980) BDRip 1080p [HEVC] 10 bit от ADVOKAT69
Загружается...
Сэмпл Торрент🧲 Магнет

Кнопки "Позвать в чате" и "Спасибо" доступны только зарегистрированным/авторизованным пользователям!

Файлы: 1
  • Каникулы в Простоквашино (1980).mkv   523.54 МБ
Поблагодарили: 9
Alexeyall, andre_best, antaures, Brooklyn, Chance, cnn, makss333, MIGRANT, NRK888
10.03.2020  11:00:11 ADVOKAT69
0 66 5 0 523.54 МБ

Добавление нового комментария

Добавление комментариев доступно только зарегистрированным/авторизованным пользователям.