Регистрация / Смена пароля

💬 Мини-чат

(Сегодня) Laska020489:
(Сегодня) OldGamer: ADVOKAT69, ✋
(Сегодня) ADVOKAT69: OldGamer, ✋
(Сегодня) ADVOKAT69: joker63, ✋
(Сегодня) joker63: ADVOKAT69, ✋
(Сегодня) OldGamer: NoMaD, что-нибудь да планируется
(Сегодня) NoMaD: OldGamer, а что планируется после Форсажа???
(Сегодня) OldGamer: joker63, ✋
(Сегодня) joker63: OldGamer, ✋
(31.03.2020) Spartanec1308: joker63, ✋
(31.03.2020) joker63: Spartanec1308, ✋
(31.03.2020) makss333: Раздайте, пожалуйста, 22 мили / Mile 22 (2018) BDRip 1080p [HEVC] 10 bit от HANNIBAL
(31.03.2020) Undervest: Раздайте, пожалуйста, Коза Ностра / The Valachi Papers (1972) BDRip 1080p [HEVC] 10 bit от Joker63
(31.03.2020) OldGamer: joker63, ✋
(31.03.2020) joker63: OldGamer, ✋
(31.03.2020) dresden: Раздайте, пожалуйста, Салют-7 (2017) BDRip 1080p [HEVC] 10 bit от M@kSIMus
(30.03.2020) AlexTwitt: joker63, ✌
(30.03.2020) joker63: AlexTwitt, ✋
(30.03.2020) Admin: OldGamer, но я сначала подожду, пока другие скачают.
(30.03.2020) Admin: OldGamer, учитывая незначительную разницу в суммарном объеме (и то из-за оригинальных дорожек), то я у себя в коллекции заменю на твою.
  • ADVOKAT69
  • joker63
  • alexyak
  • dimasij
  • Flamescorpion
  • grudich
  • icesnoop
  • Laska020489
  • Priest2017
  • rodina_45
  • Vitoss6
  • Ярослав
Отправка сообщений доступно только зарегистрированным/авторизованным пользователям.
Онлайн (за 10 мин.): 12

Трое из Простоквашино (1978) BDRip 1080p [HEVC] 10 bit от ADVOKAT69

HEVC
10 bit
Обложка Трое из Простоквашино (1978) BDRip 1080p [HEVC] 10 bit от ADVOKAT69 Год: 1978
Страна: СССР
Жанр: Мультфильм, Короткометражка, Семейный
Продолжительность: 00:17:46

Режиссер: Владимир Попов
В ролях: Мария Виноградова, Олег Табаков, Лев Дуров, Борис Новиков, Герман Качин, Валентина Талызина

Описание: Жил-был мальчик по прозвищу Дядя Федор. Он очень любил животных, но его родители и слышать ничего не хотели о том, чобы в их квартире завелся кто-то хвостатый и лохматый. И пришлось Дяде Федору со своими новыми приятелями - котом Матроскиным и верным песиком Шариком - отправиться в деревню Простоквашино.

КиноПоиск
8.786 124192
IMDb
8.2
2677


Видео: 1424x1080, 3639 Kbps
Аудио: AC3, 6 ch, 448 Kbps - Русский, Оригинал
Субтитры: нет

Медиаинфо
Общее
Уникальный идентификатор : 190446244203185970459782153633227547631 (0x8F469CC991AEDDF4A825FD06D7DB23EF)
Полное имя : G:\Мультфильмы\Трое из Простоквашино\Трое из Простоквашино (1978).mkv
Формат : Matroska
Версия формата : Version 2
Размер файла : 530 Мбайт
Продолжительность : 17 м. 46 с.
Общий поток : 4170 Кбит/сек
Дата кодирования : UTC 2020-03-09 14:08:58
Программа кодирования : mkvmerge v7.8.0 ('River Man') 32bit built on Apr 3 2015 12:11:22
Библиотека кодирования : libebml v1.3.1 + libmatroska v1.4.2

Видео
Идентификатор : 1
Формат : HEVC
Формат/Информация : High Efficiency Video Coding
Профиль формата : Main 10@L4.1@Main
Идентификатор кодека : V_MPEGH/ISO/HEVC
Продолжительность : 17 м. 46 с.
Битрейт : 3639 Кбит/сек
Ширина : 1424 пикселя
Высота : 1080 пикселей
Соотношение сторон : 4:3
Режим частоты кадров : Постоянный
Частота кадров : 25,000 кадров/сек
Цветовое пространство : YUV
Субдискретизация насыщенности : 4:2:0
Битовая глубина : 10 бит
Бит/(Пиксели*Кадры) : 0.095
Размер потока : 463 Мбайт (87%)
Библиотека кодирования : x265 1.5+88-0e89af0781ee:[Windows][GCC 4.8.2][64 bit] 16bpp
Настройки программы : wpp / ctu=64 / min-cu-size=8 / max-tu-size=32 / tu-intra-depth=1 / tu-inter-depth=1 / me=2 / subme=7 / merange=57 / no-rect / no-amp / max-merge=3 / temporal-mvp / no-early-skip / rdpenalty=0 / no-tskip / no-tskip-fast / strong-intra-smoothing / no-lossless / no-cu-lossless / no-constrained-intra / no-fast-intra / open-gop / no-temporal-layers / interlace=0 / keyint=240 / min-keyint=24 / scenecut=40 / rc-lookahead=30 / bframes=5 / bframe-bias=0 / b-adapt=2 / ref=5 / weightp / no-weightb / aq-mode=1 / aq-strength=1.00 / cbqpoffs=0 / crqpoffs=0 / rd=4 / psy-rd=0.30 / psy-rdoq=1.00 / signhide / lft / sao / no-sao-non-deblock / b-pyramid / cutree / rc=crf / crf=20.0 / qcomp=0.60 / qpmin=0 / qpmax=51 / qpstep=4 / vbv-maxrate=20000 / vbv-bufsize=20000 / crf-max=0.0 / ipratio=1.40 / pbratio=1.30
Default : Да
Forced : Нет
Цветовой диапазон : Full

Аудио
Идентификатор : 2
Формат : AC-3
Формат/Информация : Audio Coding 3
Коммерческое название : Dolby Digital
Идентификатор кодека : A_AC3
Продолжительность : 17 м. 46 с.
Вид битрейта : Постоянный
Битрейт : 448 Кбит/сек
Каналы : 6 каналов
ChannelLayout : L R C LFE Ls Rs
Частота : 48,0 КГц
Частота кадров : 31,250 кадров/сек (1536 SPF)
Метод сжатия : С потерями
Размер потока : 57,0 Мбайт (11%)
ServiceKind/String : Complete Main
Default : Да
Forced : Нет
Cкриншот1 Трое из Простоквашино (1978) BDRip 1080p [HEVC] 10 bit от ADVOKAT69
Загружается...
Cкриншот2 Трое из Простоквашино (1978) BDRip 1080p [HEVC] 10 bit от ADVOKAT69
Загружается...
Cкриншот3 Трое из Простоквашино (1978) BDRip 1080p [HEVC] 10 bit от ADVOKAT69
Загружается...
Cкриншот4 Трое из Простоквашино (1978) BDRip 1080p [HEVC] 10 bit от ADVOKAT69
Загружается...
Сэмпл Торрент🧲 Магнет

Кнопки "Позвать в чате" и "Спасибо" доступны только зарегистрированным/авторизованным пользователям!

Файлы: 1
  • Трое из Простоквашино (1978).mkv   530.36 МБ
Поблагодарили: 9
antaures, Brooklyn, brukvalub, Chance, cnn, LastSurviv0r, makss333, MIGRANT, NRK888
09.03.2020  17:55:43 ADVOKAT69
0 63 10 0 530.36 МБ

Добавление нового комментария

Добавление комментариев доступно только зарегистрированным/авторизованным пользователям.