Регистрация / Смена пароля

💬 Мини-чат

(Сегодня) Laska020489:
(Сегодня) OldGamer: ADVOKAT69, ✋
(Сегодня) ADVOKAT69: OldGamer, ✋
(Сегодня) ADVOKAT69: joker63, ✋
(Сегодня) joker63: ADVOKAT69, ✋
(Сегодня) OldGamer: NoMaD, что-нибудь да планируется
(Сегодня) NoMaD: OldGamer, а что планируется после Форсажа???
(Сегодня) OldGamer: joker63, ✋
(Сегодня) joker63: OldGamer, ✋
(31.03.2020) Spartanec1308: joker63, ✋
(31.03.2020) joker63: Spartanec1308, ✋
(31.03.2020) makss333: Раздайте, пожалуйста, 22 мили / Mile 22 (2018) BDRip 1080p [HEVC] 10 bit от HANNIBAL
(31.03.2020) Undervest: Раздайте, пожалуйста, Коза Ностра / The Valachi Papers (1972) BDRip 1080p [HEVC] 10 bit от Joker63
(31.03.2020) OldGamer: joker63, ✋
(31.03.2020) joker63: OldGamer, ✋
(31.03.2020) dresden: Раздайте, пожалуйста, Салют-7 (2017) BDRip 1080p [HEVC] 10 bit от M@kSIMus
(30.03.2020) AlexTwitt: joker63, ✌
(30.03.2020) joker63: AlexTwitt, ✋
(30.03.2020) Admin: OldGamer, но я сначала подожду, пока другие скачают.
(30.03.2020) Admin: OldGamer, учитывая незначительную разницу в суммарном объеме (и то из-за оригинальных дорожек), то я у себя в коллекции заменю на твою.
  • icesnoop
  • igor302
  • kirillius
  • Kosten
  • Laska020489
  • litanglong
  • silay
Отправка сообщений доступно только зарегистрированным/авторизованным пользователям.
Онлайн (за 10 мин.): 7

Перевозчик: Наследие / The Transporter Refueled (2015) BDRip 1080p [HEVC] 10 bit от Spartanec1308

HEVC
10 bit
Обложка Перевозчик: Наследие / The Transporter Refueled (2015) BDRip 1080p [HEVC] 10 bit от Spartanec1308 Год: 2015
Страна: Франция, Китай, Бельгия
Студия: EuropaCorp, TF1 Films Production, Fundamental Film
Жанр: Боевик, Триллер, Комедия, Драма
Продолжительность: 01:35:54

Режиссер: Камиль Деламарр
В ролях: Эд Скрейн, Рэй Стивенсон, Лоан Шабаноль, Габриэлла Райт, Татьяна Пайкович, Венься Ю, Радивойе Буквич, Ноэми Ленуар, Юрий Колокольников, Ленн Кудрявицки, Самир Гесми, Анатоль Таубман, Робби Нок, Майкл Моррис, Нэш Новчич, Йохен Хаэгеле, Седрик Шевальм, Джером Зайбала, Стефан Морено-Карпио, Лорен Ферраро

Описание: Фрэнк Мартин — самый высококвалифицированный перевозчик, которого только можно нанять за деньги. Ставки выше, технологии поднялись на более высокий уровень, но правила те же: никогда не изменять условия сделки, никаких имен и никогда не открывать груз.Когда Фрэнка нанимает хитроумная красотка Анна и ее три очаровательные сообщницы, он быстро выясняет, что его водят за нос. Анна и ее команда похитили его отца, чтобы заставить Фрэнка помочь им разобраться с группой безжалостных торговцев людьми.

КиноПоиск
5.076 16619
IMDb
5.2
37576


Видео: 1920x800, 8532 Кбит/сек, 0.232 бит/(Пиксели*Кадры), 23,976 кадр/сек, HEVC (Main10@L.4.1@High) 10 бит
Аудио1: AC3, 6 ch, 640 Kbps -
Русский, Дублированный (Лицензия)
Аудио2: AC3, 6 ch, 640 Kbps -
English, Original
Субтитры: нет

Как за пару секунд удалить ненужные аудиодорожки и субтитры (Внимание! После удаления вы не сможете поддержать раздачу)

Лог (x265 info)
x265 [info]: frame I: 2191, Avg QP:17.98 kb/s: 23636.60
x265 [info]: frame P: 29386, Avg QP:19.22 kb/s: 14159.71
x265 [info]: frame B: 106384, Avg QP:21.51 kb/s: 6664.85
x265 [info]: Weighted P-Frames: Y:5.1% UV:4.2%
x265 [info]: Weighted B-Frames: Y:4.6% UV:3.8%
x265 [info]: consecutive B-frames: 15.1% 7.9% 9.4% 29.2% 9.3% 13.7% 4.5% 5.0% 1.8% 1.7% 0.9% 0.7% 0.6%

encoded 137961 frames in 296838.50s (0.46 fps), 8530.80 kb/s, Avg QP:20.97
Медиаинфо
Формат : Matroska
Версия формата : Version 4
Размер файла : 6,57 Гбайт
Продолжительность : 1 ч. 35 м.
Общий поток : 9814 Кбит/сек
Название фильма : by Spartanec
Дата кодирования : UTC 2020-02-23 15:37:53
Программа кодирования : mkvmerge v7.0.0 ('Where We Going') 64bit built on Jun 9 2014 15:16:27
Библиотека кодирования : libebml v1.3.0 + libmatroska v1.4.1 / Lavf57.71.100
Обложка : Yes
Attachments : cover.jpg

Видео
Идентификатор : 1
Формат : HEVC
Формат/Информация : High Efficiency Video Coding
Профиль формата : Main 10@L4.1@High
Идентификатор кодека : V_MPEGH/ISO/HEVC
Продолжительность : 1 ч. 35 м.
Битрейт : 8532 Кбит/сек
Ширина : 1920 пикселей
Высота : 800 пикселей
Соотношение сторон : 2,40:1
Режим частоты кадров : Постоянный
Частота кадров : 23,976 (23976/1000) кадра/сек
Частота кадров в оригинале : 23,976 (24000/1001) кадра/сек
Цветовое пространство : YUV
Субдискретизация насыщенности : 4:2:0
Битовая глубина : 10 бит
Бит/(Пиксели*Кадры) : 0.232
Размер потока : 5,72 Гбайт (87%)
Заголовок : Spartanec
Библиотека кодирования : x265 3.2.1+1-b5c86a64bbbe:[Windows][GCC 9.2.0][64 bit] 10bit
Настройки программы : cpuid=1111039 / frame-threads=4 / numa-pools=16 / wpp / no-pmode / no-pme / no-psnr / no-ssim / log-level=2 / input-csp=1 / input-res=1920x800 / interlace=0 / total-frames=137961 / level-idc=41 / high-tier=1 / uhd-bd=0 / ref=5 / no-allow-non-conformance / no-repeat-headers / annexb / no-aud / no-hrd / info / hash=0 / no-temporal-layers / open-gop / min-keyint=23 / keyint=240 / gop-lookahead=0 / bframes=12 / b-adapt=2 / b-pyramid / bframe-bias=0 / rc-lookahead=60 / lookahead-slices=1 / scenecut=40 / radl=0 / no-splice / no-intra-refresh / ctu=32 / min-cu-size=8 / rect / amp / max-tu-size=32 / tu-inter-depth=4 / tu-intra-depth=4 / limit-tu=1 / rdoq-level=1 / dynamic-rd=0.00 / no-ssim-rd / signhide / no-tskip / nr-intra=0 / nr-inter=0 / no-constrained-intra / no-strong-intra-smoothing / max-merge=5 / limit-refs=0 / no-limit-modes / me=3 / subme=7 / merange=57 / temporal-mvp / no-hme / weightp / weightb / no-analyze-src-pics / deblock=-2:-2 / no-sao / no-sao-non-deblock / rd=6 / selective-sao=0 / no-early-skip / no-rskip / no-fast-intra / no-tskip-fast / no-cu-lossless / b-intra / no-splitrd-skip / rdpenalty=0 / psy-rd=2.00 / psy-rdoq=1.00 / no-rd-refine / no-lossless / cbqpoffs=0 / crqpoffs=0 / rc=crf / crf=20.5 / qcomp=0.70 / qpstep=4 / stats-write=0 / stats-read=0 / vbv-maxrate=50000 / vbv-bufsize=50000 / vbv-init=0.9 / crf-max=0.0 / crf-min=0.0 / ipratio=1.40 / pbratio=1.30 / aq-mode=2 / aq-strength=1.00 / no-cutree / zone-count=0 / no-strict-cbr / qg-size=32 / no-rc-grain / qpmax=69 / qpmin=0 / no-const-vbv / sar=1 / overscan=0 / videoformat=5 / range=0 / colorprim=1 / transfer=1 / colormatrix=1 / chromaloc=0 / display-window=0 / cll=0,0 / min-luma=0 / max-luma=1023 / log2-max-poc-lsb=8 / vui-timing-info / vui-hrd-info / slices=1 / no-opt-qp-pps / no-opt-ref-list-length-pps / no-multi-pass-opt-rps / scenecut-bias=0.05 / no-opt-cu-delta-qp / no-aq-motion / no-hdr / no-hdr-opt / no-dhdr10-opt / no-idr-recovery-sei / analysis-reuse-level=5 / scale-factor=0 / refine-intra=0 / refine-inter=0 / refine-mv=0 / refine-ctu-distortion=0 / no-limit-sao / ctu-info=0 / no-lowpass-dct / refine-analysis-type=0 / copy-pic=1 / max-ausize-factor=1.0 / no-dynamic-refine / no-single-sei / no-hevc-aq / no-svt / no-field / qp-adaptation-range=1.00
Язык : English
Default : Да
Forced : Нет
Цветовой диапазон : Limited
Основные цвета : BT.709
Характеристики трансфера : BT.709
Коэффициенты матрицы : BT.709

Аудио #1
Идентификатор : 2
Формат : AC-3
Формат/Информация : Audio Coding 3
Коммерческое название : Dolby Digital
Идентификатор кодека : A_AC3
Продолжительность : 1 ч. 35 м.
Вид битрейта : Постоянный
Битрейт : 640 Кбит/сек
Каналы : 6 каналов
Channel layout : L R C LFE Ls Rs
Частота : 48,0 КГц
Частота кадров : 31,250 кадров/сек (1536 SPF)
Битовая глубина : 16 бит
Метод сжатия : С потерями
Размер потока : 439 Мбайт (7%)
Заголовок : Дубляж
Язык : Russian
ServiceKind/ : Complete Main
Default : Да
Forced : Нет

Аудио #2
Идентификатор : 3
Формат : AC-3
Формат/Информация : Audio Coding 3
Коммерческое название : Dolby Digital
Идентификатор кодека : A_AC3
Продолжительность : 1 ч. 35 м.
Вид битрейта : Постоянный
Битрейт : 640 Кбит/сек
Каналы : 6 каналов
Channel layout : L R C LFE Ls Rs
Частота : 48,0 КГц
Частота кадров : 31,250 кадров/сек (1536 SPF)
Битовая глубина : 16 бит
Метод сжатия : С потерями
Размер потока : 439 Мбайт (7%)
Заголовок : Оригинал
Язык : English
ServiceKind/ : Complete Main
Default : Нет
Forced : Нет

Меню
00:00:00.000 : :00:00:00.000
00:03:29.042 : :00:03:29.042
00:06:43.278 : :00:06:43.278
00:11:22.599 : :00:11:22.599
00:15:01.651 : :00:15:01.651
00:20:21.512 : :00:20:21.512
00:24:49.905 : :00:24:49.905
00:27:03.664 : :00:27:03.664
00:29:29.643 : :00:29:29.643
00:32:56.600 : :00:32:56.600
00:35:48.605 : :00:35:48.605
00:37:35.879 : :00:37:35.879
00:41:53.845 : :00:41:53.845
00:48:09.887 : :00:48:09.887
00:52:44.536 : :00:52:44.536
00:57:42.793 : :00:57:42.793
01:01:01.658 : :01:01:01.658
01:06:43.541 : :01:06:43.541
01:10:50.203 : :01:10:50.204
01:13:06.048 : :01:13:06.048
01:18:27.244 : :01:18:27.244
01:20:18.397 : :01:20:18.397
01:21:53.408 : :01:21:53.408
01:24:16.885 : :01:24:16.885
01:27:00.132 : :01:27:00.132
01:28:45.070 : :01:28:45.070
01:30:07.110 : :01:30:07.110
Cкриншот1 Перевозчик: Наследие / The Transporter Refueled (2015) BDRip 1080p [HEVC] 10 bit от Spartanec1308
Загружается...
Cкриншот2 Перевозчик: Наследие / The Transporter Refueled (2015) BDRip 1080p [HEVC] 10 bit от Spartanec1308
Загружается...
Cкриншот3 Перевозчик: Наследие / The Transporter Refueled (2015) BDRip 1080p [HEVC] 10 bit от Spartanec1308
Загружается...
Cкриншот4 Перевозчик: Наследие / The Transporter Refueled (2015) BDRip 1080p [HEVC] 10 bit от Spartanec1308
Загружается...
Сэмпл Торрент🧲 Магнет

Кнопки "Позвать в чате" и "Спасибо" доступны только зарегистрированным/авторизованным пользователям!

Файлы: 1
  • Перевозчик. Наследие (2015) BDRip 1080p [HEVC] 10bit by Spartanec.mkv   6.57 ГБ
Поблагодарили: 9
alexyak, and50, brukvalub, crash, D16T, grudich, Laska020489, makss333, NoMaD
23.02.2020  21:19:32 Spartanec1308
1 26 0 0 6.57 ГБ

Добавление нового комментария

Добавление комментариев доступно только зарегистрированным/авторизованным пользователям.
Аватар Laska020489
  Laska020489  03.03.2020  01:10:35
норм. мне понравился.