Регистрация / Смена пароля

💬 Мини-чат

(Сегодня) Laska020489:
(Сегодня) OldGamer: ADVOKAT69, ✋
(Сегодня) ADVOKAT69: OldGamer, ✋
(Сегодня) ADVOKAT69: joker63, ✋
(Сегодня) joker63: ADVOKAT69, ✋
(Сегодня) OldGamer: NoMaD, что-нибудь да планируется
(Сегодня) NoMaD: OldGamer, а что планируется после Форсажа???
(Сегодня) OldGamer: joker63, ✋
(Сегодня) joker63: OldGamer, ✋
(31.03.2020) Spartanec1308: joker63, ✋
(31.03.2020) joker63: Spartanec1308, ✋
(31.03.2020) makss333: Раздайте, пожалуйста, 22 мили / Mile 22 (2018) BDRip 1080p [HEVC] 10 bit от HANNIBAL
(31.03.2020) Undervest: Раздайте, пожалуйста, Коза Ностра / The Valachi Papers (1972) BDRip 1080p [HEVC] 10 bit от Joker63
(31.03.2020) OldGamer: joker63, ✋
(31.03.2020) joker63: OldGamer, ✋
(31.03.2020) dresden: Раздайте, пожалуйста, Салют-7 (2017) BDRip 1080p [HEVC] 10 bit от M@kSIMus
(30.03.2020) AlexTwitt: joker63, ✌
(30.03.2020) joker63: AlexTwitt, ✋
(30.03.2020) Admin: OldGamer, но я сначала подожду, пока другие скачают.
(30.03.2020) Admin: OldGamer, учитывая незначительную разницу в суммарном объеме (и то из-за оригинальных дорожек), то я у себя в коллекции заменю на твою.
  • joker63
  • bombardir
  • EiffeL
  • kirillius
  • Kosten
  • Laska020489
  • litanglong
  • silay
Отправка сообщений доступно только зарегистрированным/авторизованным пользователям.
Онлайн (за 10 мин.): 8

Лучше не бывает / As Good as It Gets (1997) BDRip 1080p [HEVC] 10 bit от HANNIBAL

HEVC
10 bit
Обложка Лучше не бывает / As Good as It Gets (1997) BDRip 1080p [HEVC] 10 bit от HANNIBAL Год: 1997
Страна: США
Студия: TriStar Pictures
Жанр: Драма, Мелодрама, Комедия
Продолжительность: 02:18:38

Режиссер: Джеймс Л. Брукс
В ролях: Джек Николсон, Хелен Хант, Грег Кинниэр, Кьюба Гудинг мл., Скит Ульрих, Ширли Найт, Ярдли Смит, Лупе Онтиверос, Рэндолл Батинкофф, Джесси Джеймс

Описание: Мелвин Адал, психически неуравновешенный эксцентричный писатель, ненавидит буквально всех вокруг. Из-за своего странного поведения он одинок и часто попадает в комичные ситуации. Но неожиданно его уединение нарушается. Мелвину приходится ухаживать за соседской собакой, и незаметно для себя он учится у нее доброте и преданности. За стеной собственного равнодушия ему открывается прекрасный мир человеческих чувств…

КиноПоиск
7.843 45752
IMDb
7.7
263764


Видео: 1920x1040, 10.8 Mbps
Аудио1: AC3, 2 ch, 192 Kbps -
Русский, Дублированный
Аудио2: AC3, 2 ch, 192 Kbps -
Русский, Многоголосый (ОРТ)
Аудио3: AC3, 2 ch, 160 Kbps -
Русский, Одноголосый (Визгунов)
Аудио4: AC3, 6 ch, 448 Kbps -
Русский, Одноголосый (Котов)
Аудио5: AC3, 6 ch, 384 Kbps -
Украинский, Многоголосый
Аудио6: AC3, 6 ch, 640 Kbps -
Английский, Оригинал
Субтитры: Русские, английские

Как за пару секунд удалить ненужные аудиодорожки и субтитры (Внимание! После удаления вы не сможете поддержать раздачу)

Медиаинфо
General
Unique ID : 288463606811615914150977441604460729995 (0xD90411DFE2382DA7743065191169D68B)
Complete name : D:\As Good as It Gets (1997) BDRip-HEVC 1080p 10 bit.mkv
Format : Matroska
Format version : Version 4
File size : 12.4 GiB
Duration : 2 h 18 min
Overall bit rate : 12.8 Mb/s
Movie name : Лучше не бывает
Encoded date : UTC 2020-02-19 15:51:56
Writing application : mkvmerge v25.0.0 ('Prog Noir') 64-bit
Writing library : libebml v1.3.6 + libmatroska v1.4.9 / Lavf57.71.100
Attachments : poster.jpg
ACTORS : Джек Николсон, Хелен Хант,
COUNTRY : США
DATE : 1997
DIRECTOR : Джеймс Л. Брукс
ENCODING_INFO : MATROSKA,WEBM > MKV Пользовательский / H264 > X265 CRF 20.0 Slow
GENRE : драма, мелодрама, комедия
HD_VIDEO : 1
Language : und
MEDIA_TYPE : 9
ORIGINAL_TITLE : As Good as It Gets

Video
ID : 1
Format : HEVC
Format/Info : High Efficiency Video Coding
Format profile : Main 10@L4.1@High
Codec ID : V_MPEGH/ISO/HEVC
Duration : 2 h 18 min
Bit rate : 10.8 Mb/s
Width : 1 920 pixels
Height : 1 040 pixels
Display aspect ratio : 1.85:1
Frame rate mode : Constant
Frame rate : 23.976 (24000/1001) FPS
Color space : YUV
Chroma subsampling : 4:2:0
Bit depth : 10 bits
Bits/(Pixel*Frame) : 0.225
Stream size : 10.4 GiB (84%)
Title : As Good as It Gets 1997 BluRay 1080p AVC DTS-HD MA5.1-CHDBits
Writing library : x265 3.1+7-147fb92c5ed5:[Windows][clang 8.0.0][64 bit] 10bit
Encoding settings : cpuid=1111039 / frame-threads=13 / wpp / no-pmode / no-pme / no-psnr / no-ssim / log-level=3 / input-csp=1 / input-res=1920x1040 / interlace=0 / total-frames=0 / level-idc=41 / high-tier=1 / uhd-bd=0 / ref=5 / allow-non-conformance / no-repeat-headers / annexb / no-aud / no-hrd / info / hash=0 / no-temporal-layers / open-gop / min-keyint=23 / keyint=240 / gop-lookahead=0 / bframes=8 / b-adapt=2 / b-pyramid / bframe-bias=0 / rc-lookahead=60 / lookahead-slices=4 / scenecut=60 / radl=0 / no-splice / no-intra-refresh / ctu=64 / min-cu-size=8 / rect / amp / max-tu-size=32 / tu-inter-depth=4 / tu-intra-depth=4 / limit-tu=4 / rdoq-level=2 / dynamic-rd=0.00 / no-ssim-rd / signhide / no-tskip / nr-intra=0 / nr-inter=0 / no-constrained-intra / no-strong-intra-smoothing / max-merge=5 / limit-refs=3 / limit-modes / me=3 / subme=7 / merange=57 / temporal-mvp / no-hme / weightp / weightb / no-analyze-src-pics / deblock=-3:-3 / no-sao / no-sao-non-deblock / rd=6 / no-early-skip / no-rskip / no-fast-intra / no-tskip-fast / no-cu-lossless / no-b-intra / no-splitrd-skip / rdpenalty=0 / psy-rd=2.00 / psy-rdoq=1.00 / no-rd-refine / no-lossless / cbqpoffs=0 / crqpoffs=0 / rc=crf / crf=20.0 / qcomp=0.60 / qpstep=4 / stats-write=0 / stats-read=0 / vbv-maxrate=50000 / vbv-bufsize=50000 / vbv-init=0.9 / crf-max=30.0 / crf-min=0.0 / ipratio=1.40 / pbratio=1.30 / aq-mode=2 / aq-strength=1.00 / no-cutree / zone-count=0 / no-strict-cbr / qg-size=32 / no-rc-grain / qpmax=69 / qpmin=0 / no-const-vbv / sar=1 / overscan=0 / videoformat=5 / range=0 / colorprim=1 / transfer=1 / colormatrix=1 / chromaloc=0 / display-window=0cll=0,0 / min-luma=0 / max-luma=1023 / log2-max-poc-lsb=8 / vui-timing-info / vui-hrd-info / slices=1 / no-opt-qp-pps / no-opt-ref-list-length-pps / no-multi-pass-opt-rps / scenecut-bias=0.05 / no-opt-cu-delta-qp / no-aq-motion / no-hdr / no-hdr-opt / no-dhdr10-opt / no-idr-recovery-sei / analysis-reuse-level=5 / scale-factor=0 / refine-intra=0 / refine-inter=0 / refine-mv=0 / refine-ctu-distortion=0 / no-limit-sao / ctu-info=0 / no-lowpass-dct / refine-analysis-type=0 / copy-pic=1 / max-ausize-factor=1.0 / no-dynamic-refine / no-single-sei / no-hevc-aq / no-svt / no-field / qp-adaptation-range=1.00
Language : English
Default : Yes
Forced : No
Color range : Limited
Color primaries : BT.709
Transfer characteristics : BT.709
Matrix coefficients : BT.709

Audio #1
ID : 2
Format : AC-3
Format/Info : Audio Coding 3
Commercial name : Dolby Digital
Codec ID : A_AC3
Duration : 2 h 18 min
Bit rate mode : Constant
Bit rate : 192 kb/s
Channel(s) : 2 channels
Channel layout : L R
Sampling rate : 48.0 kHz
Frame rate : 31.250 FPS (1536 SPF)
Compression mode : Lossy
Stream size : 190 MiB (2%)
Title : Dub
Language : Russian
Service kind : Complete Main
Default : Yes
Forced : No

Audio #2
ID : 3
Format : AC-3
Format/Info : Audio Coding 3
Commercial name : Dolby Digital
Codec ID : A_AC3
Duration : 2 h 18 min
Bit rate mode : Constant
Bit rate : 192 kb/s
Channel(s) : 2 channels
Channel layout : L R
Sampling rate : 48.0 kHz
Frame rate : 31.250 FPS (1536 SPF)
Compression mode : Lossy
Stream size : 190 MiB (2%)
Title : MVO (ОРТ)
Language : Russian
Service kind : Complete Main
Default : No
Forced : No

Audio #3
ID : 4
Format : AC-3
Format/Info : Audio Coding 3
Commercial name : Dolby Digital
Codec ID : A_AC3
Duration : 2 h 18 min
Bit rate mode : Constant
Bit rate : 160 kb/s
Channel(s) : 2 channels
Channel layout : L R
Sampling rate : 48.0 kHz
Frame rate : 31.250 FPS (1536 SPF)
Compression mode : Lossy
Stream size : 159 MiB (1%)
Title : AVO (С. Визгунов)
Language : Russian
Service kind : Complete Main
Default : No
Forced : No

Audio #4
ID : 5
Format : AC-3
Format/Info : Audio Coding 3
Commercial name : Dolby Digital
Codec ID : A_AC3
Duration : 2 h 18 min
Bit rate mode : Constant
Bit rate : 448 kb/s
Channel(s) : 6 channels
Channel layout : L R C LFE Ls Rs
Sampling rate : 48.0 kHz
Frame rate : 31.250 FPS (1536 SPF)
Compression mode : Lossy
Stream size : 444 MiB (4%)
Title : AVO (В. Котов)
Language : Russian
Service kind : Complete Main
Default : No
Forced : No

Audio #5
ID : 6
Format : AC-3
Format/Info : Audio Coding 3
Commercial name : Dolby Digital
Codec ID : A_AC3
Duration : 2 h 18 min
Bit rate mode : Constant
Bit rate : 384 kb/s
Channel(s) : 6 channels
Channel layout : L R C LFE Ls Rs
Sampling rate : 48.0 kHz
Frame rate : 31.250 FPS (1536 SPF)
Compression mode : Lossy
Delay relative to video : 1 s 0 ms
Stream size : 381 MiB (3%)
Title : MVO
Language : Ukrainian
Service kind : Complete Main
Default : No
Forced : No

Audio #6
ID : 7
Format : AC-3
Format/Info : Audio Coding 3
Commercial name : Dolby Digital
Codec ID : A_AC3
Duration : 2 h 18 min
Bit rate mode : Constant
Bit rate : 640 kb/s
Channel(s) : 6 channels
Channel layout : L R C LFE Ls Rs
Sampling rate : 48.0 kHz
Frame rate : 31.250 FPS (1536 SPF)
Compression mode : Lossy
Stream size : 635 MiB (5%)
Title : eng
Language : English
Service kind : Complete Main
Default : No
Forced : No

Text #1
ID : 8
Format : UTF-8
Codec ID : S_TEXT/UTF8
Codec ID/Info : UTF-8 Plain Text
Duration : 2 h 13 min
Bit rate : 94 b/s
Count of elements : 1602
Stream size : 92.4 KiB (0%)
Title : Супербит
Language : Russian
Default : Yes
Forced : No

Text #2
ID : 9
Format : UTF-8
Codec ID : S_TEXT/UTF8
Codec ID/Info : UTF-8 Plain Text
Duration : 2 h 13 min
Bit rate : 56 b/s
Count of elements : 1447
Stream size : 55.1 KiB (0%)
Language : English
Default : No
Forced : No

Menu
00:00:00.000 : :Chapter 01
00:10:08.775 : :Chapter 02
00:21:14.690 : :Chapter 03
00:32:46.548 : :Chapter 04
00:42:08.985 : :Chapter 05
00:50:11.967 : :Chapter 06
01:02:33.333 : :Chapter 07
01:20:22.526 : :Chapter 08
01:30:08.778 : :Chapter 09
01:44:23.048 : :Chapter 10
01:55:40.225 : :Chapter 11
02:13:52.816 : :Chapter 12
Cкриншот1 Лучше не бывает / As Good as It Gets (1997) BDRip 1080p [HEVC] 10 bit от HANNIBAL
Загружается...
Cкриншот2 Лучше не бывает / As Good as It Gets (1997) BDRip 1080p [HEVC] 10 bit от HANNIBAL
Загружается...
Cкриншот3 Лучше не бывает / As Good as It Gets (1997) BDRip 1080p [HEVC] 10 bit от HANNIBAL
Загружается...
Cкриншот4 Лучше не бывает / As Good as It Gets (1997) BDRip 1080p [HEVC] 10 bit от HANNIBAL
Загружается...
Сэмпл Торрент🧲 Магнет

Кнопки "Позвать в чате" и "Спасибо" доступны только зарегистрированным/авторизованным пользователям!

Файлы: 1
  • As Good as It Gets (1997) BDRip-HEVC 1080p 10 bit.mkv   12.39 ГБ
Поблагодарили: 6
aquarius, Chance, ko1ob, LastSurviv0r, makss333, Medmedmed
22.02.2020  16:50:15 Admin
0 24 2 0 12.39 ГБ

Добавление нового комментария

Добавление комментариев доступно только зарегистрированным/авторизованным пользователям.