Регистрация / Смена пароля

💬 Мини-чат

(Сегодня) ADVOKAT69: Laska020489, ✋
(Сегодня) Laska020489:
(Сегодня) OldGamer: ADVOKAT69, ✋
(Сегодня) ADVOKAT69: OldGamer, ✋
(Сегодня) ADVOKAT69: joker63, ✋
(Сегодня) joker63: ADVOKAT69, ✋
(Сегодня) OldGamer: NoMaD, что-нибудь да планируется
(Сегодня) NoMaD: OldGamer, а что планируется после Форсажа???
(Сегодня) OldGamer: joker63, ✋
(Сегодня) joker63: OldGamer, ✋
(31.03.2020) Spartanec1308: joker63, ✋
(31.03.2020) joker63: Spartanec1308, ✋
(31.03.2020) makss333: Раздайте, пожалуйста, 22 мили / Mile 22 (2018) BDRip 1080p [HEVC] 10 bit от HANNIBAL
(31.03.2020) Undervest: Раздайте, пожалуйста, Коза Ностра / The Valachi Papers (1972) BDRip 1080p [HEVC] 10 bit от Joker63
(31.03.2020) OldGamer: joker63, ✋
(31.03.2020) joker63: OldGamer, ✋
(31.03.2020) dresden: Раздайте, пожалуйста, Салют-7 (2017) BDRip 1080p [HEVC] 10 bit от M@kSIMus
(30.03.2020) AlexTwitt: joker63, ✌
(30.03.2020) joker63: AlexTwitt, ✋
(30.03.2020) Admin: OldGamer, но я сначала подожду, пока другие скачают.
  • ADVOKAT69
  • AD_60
  • Alchemist
  • Brooklyn
  • grudich
  • Linkin
  • pappap
  • Renard_roux
  • Rendre
  • WarMaster
  • Ярослав
Отправка сообщений доступно только зарегистрированным/авторизованным пользователям.
Онлайн (за 10 мин.): 11

Тренировочный день / Training Day (2001) BDRip 1080p [HEVC] 10 bit от OldGamer (RG HEVC-CLUB)

HEVC
10 bit
Обложка Тренировочный день / Training Day (2001) BDRip 1080p [HEVC] 10 bit от OldGamer (RG HEVC-CLUB) Год: 2001
Страна: США
Студия: Warner Brothers, Village Roadshow Pictures, NPV Entertainment, Outlaw Productions, WV Films II
Жанр: Триллер, Драма, Криминал
Продолжительность: 02:02:04

Режиссер: Антуан Фукуа
В ролях: Дензел Вашингтон, Итан Хоук, Скотт Гленн, Том Беренджер, Харрис Юлин, Рэймонд Дж. Бэрри, Клифф Кёртис, Др. Дре, Снуп Догг, Мейси Грэй

Описание: Джейк Хойт устраивается на работу в отдел по борьбе с наркотиками полиции Лос-Анджелеса. Его напарником становится опытный полицейский Алонзо Харисс, который в борьбе с преступностью далеко не всегда использует законные методы. И почти сразу Джейк оказывается вовлечённым в стремительный водоворот событий.

КиноПоиск
7.831 75090
IMDb
7.7
370558


Исходник: Blu-Ray Remux 1080p
Видео: 1920x808 (2,40:1), 5054 кбит/сек, 0.136 бит/(Пиксели*Кадры), 23,976 (24000/1001) кадра/сек, HEVC (Main 10@L4.1@High) 10 бит
Аудио1: AC3, 6 ch, 384 Kbps -
Русский, Дублированный
Аудио2: AC3, 6 ch, 640 Kbps -
Русский, Многоголосый (Карусель)
Аудио3: AC3, 6 ch, 384 Kbps -
Русский, Многоголосый
Аудио4: AC3, 6 ch, 640 Kbps -
Русский, Авторский (Андрей Гаврилов)
Аудио5: AC3, 6 ch, 640 Kbps -
Русский, Авторский (Юрий Живов)
Аудио6: AC3, 6 ch, 640 Kbps -
Русский, Авторский (Владимир Завгородний)
Аудио7: AC3, 6 ch, 640 Kbps -
Русский, Авторский (Сергей Визгунов)
Аудио8: AC3, 6 ch, 640 Kbps -
English, Original
Субтитры: Русские полные (SRT), English full (SRT)

Как за пару секунд удалить ненужные аудиодорожки и субтитры (Внимание! После удаления вы не сможете поддержать раздачу)

Лог (x265 info)
x265 [info]: frame I: 734, Avg QP:18.05 kb/s: 12744.17
x265 [info]: frame P: 35453, Avg QP:19.32 kb/s: 8971.09
x265 [info]: frame B: 139382, Avg QP:21.55 kb/s: 4016.33
x265 [info]: Weighted P-Frames: Y:6.1% UV:4.7%
x265 [info]: Weighted B-Frames: Y:4.6% UV:3.1%
x265 [info]: consecutive B-frames: 1.4% 3.7% 3.1% 48.4% 6.0% 28.1% 2.1% 6.3% 0.3% 0.2% 0.1% 0.1% 0.0% 0.1%
x265 [info]: encoded 175569 frames in 163362.25s (1.07 fps), 5053.34 kb/s, Avg QP:21.08
Медиаинфо
Формат : Matroska
Версия формата : Version 4
Размер файла : 8,24 Гбайт
Продолжительность : 2 ч. 2 м.
Общий поток : 9664 Кбит/сек
Название фильма : Тренировочный.день.Training.Day.2001.BDRip-HEVC.1080p
Дата кодирования : UTC 2020-02-23 19:44:07
Программа кодирования : mkvmerge v43.0.0 ('The Quartermaster') 64-bit
Библиотека кодирования : libebml v1.3.10 + libmatroska v1.5.2

Видео
Идентификатор : 1
Формат : HEVC
Формат/Информация : High Efficiency Video Coding
Профиль формата : Main 10@L4.1@High
Идентификатор кодека : V_MPEGH/ISO/HEVC
Продолжительность : 2 ч. 2 м.
Битрейт : 5054 Кбит/сек
Ширина : 1920 пикселей
Высота : 808 пикселей
Соотношение сторон : 2,40:1
Режим частоты кадров : Постоянный
Частота кадров : 23,976 (24000/1001) кадра/сек
Цветовое пространство : YUV
Субдискретизация насыщенности : 4:2:0
Битовая глубина : 10 бит
Бит/(Пиксели*Кадры) : 0.136
Размер потока : 4,31 Гбайт (52%)
Заголовок : Training Day / Rip by OldGamer
Библиотека кодирования : x265 3.2.1+3-b4b2ecac21f6:[Windows][MSVC 1924][64 bit] 10bit
Настройки программы : cpuid=1111039 / frame-threads=3 / numa-pools=12 / wpp / no-pmode / no-pme / no-psnr / no-ssim / log-level=2 / input-csp=1 / input-res=1920x808 / interlace=0 / total-frames=175569 / level-idc=41 / high-tier=1 / uhd-bd=0 / ref=5 / no-allow-non-conformance / no-repeat-headers / annexb / no-aud / no-hrd / info / hash=0 / no-temporal-layers / open-gop / min-keyint=23 / keyint=240 / gop-lookahead=0 / bframes=13 / b-adapt=2 / b-pyramid / bframe-bias=0 / rc-lookahead=60 / lookahead-slices=0 / scenecut=40 / radl=0 / no-splice / no-intra-refresh / ctu=64 / min-cu-size=8 / rect / amp / max-tu-size=32 / tu-inter-depth=4 / tu-intra-depth=4 / limit-tu=1 / rdoq-level=2 / dynamic-rd=0.00 / no-ssim-rd / signhide / no-tskip / nr-intra=0 / nr-inter=0 / no-constrained-intra / no-strong-intra-smoothing / max-merge=5 / limit-refs=3 / no-limit-modes / me=3 / subme=7 / merange=57 / temporal-mvp / no-hme / weightp / weightb / no-analyze-src-pics / deblock=-3:-3 / no-sao / no-sao-non-deblock / rd=6 / selective-sao=0 / no-early-skip / rskip / no-fast-intra / no-tskip-fast / no-cu-lossless / b-intra / no-splitrd-skip / rdpenalty=0 / psy-rd=2.00 / psy-rdoq=1.00 / no-rd-refine / no-lossless / cbqpoffs=0 / crqpoffs=0 / rc=crf / crf=20.5 / qcomp=0.70 / qpstep=4 / stats-write=0 / stats-read=0 / vbv-maxrate=50000 / vbv-bufsize=50000 / vbv-init=0.9 / crf-max=0.0 / crf-min=0.0 / ipratio=1.40 / pbratio=1.30 / aq-mode=2 / aq-strength=1.00 / no-cutree / zone-count=1 / zones: / start-frame=166400 / end-frame=175568 / qp=36 / no-strict-cbr / qg-size=32 / no-rc-grain / qpmax=69 / qpmin=0 / no-const-vbv / sar=1 / overscan=0 / videoformat=5 / range=0 / colorprim=2 / transfer=2 / colormatrix=2 / chromaloc=0 / display-window=0 / cll=0,0 / min-luma=0 / max-luma=1023 / log2-max-poc-lsb=8 / vui-timing-info / vui-hrd-info / slices=1 / no-opt-qp-pps / no-opt-ref-list-length-pps / no-multi-pass-opt-rps / scenecut-bias=0.00 / no-opt-cu-delta-qp / no-aq-motion / no-hdr / no-hdr-opt / no-dhdr10-opt / no-idr-recovery-sei / analysis-reuse-level=5 / scale-factor=0 / refine-intra=0 / refine-inter=0 / refine-mv=1 / refine-ctu-distortion=0 / no-limit-sao / ctu-info=0 / no-lowpass-dct / refine-analysis-type=0 / copy-pic=1 / max-ausize-factor=1.0 / no-dynamic-refine / no-single-sei / no-hevc-aq / no-svt / no-field / qp-adaptation-range=1.00
Язык : English
Default : Да
Forced : Нет

Аудио #1
Идентификатор : 2
Формат : AC-3
Формат/Информация : Audio Coding 3
Коммерческое название : Dolby Digital
Идентификатор кодека : A_AC3
Продолжительность : 2 ч. 2 м.
Вид битрейта : Постоянный
Битрейт : 384 Кбит/сек
Каналы : 6 каналов
Channel layout : L R C LFE Ls Rs
Частота : 48,0 КГц
Частота кадров : 31,250 кадров/сек (1536 SPF)
Битовая глубина : 16 бит
Метод сжатия : С потерями
Размер потока : 335 Мбайт (4%)
Заголовок : Дубляж
Язык : Russian
ServiceKind/String : Complete Main
Default : Да
Forced : Нет

Аудио #2
Идентификатор : 3
Формат : AC-3
Формат/Информация : Audio Coding 3
Коммерческое название : Dolby Digital
Идентификатор кодека : A_AC3
Продолжительность : 2 ч. 2 м.
Вид битрейта : Постоянный
Битрейт : 640 Кбит/сек
Каналы : 6 каналов
Channel layout : L R C LFE Ls Rs
Частота : 48,0 КГц
Частота кадров : 31,250 кадров/сек (1536 SPF)
Битовая глубина : 16 бит
Метод сжатия : С потерями
Размер потока : 559 Мбайт (7%)
Заголовок : Многоголосый закадровый (Карусель)
Язык : Russian
ServiceKind/String : Complete Main
Default : Нет
Forced : Нет

Аудио #3
Идентификатор : 4
Формат : AC-3
Формат/Информация : Audio Coding 3
Коммерческое название : Dolby Digital
Идентификатор кодека : A_AC3
Продолжительность : 2 ч. 2 м.
Вид битрейта : Постоянный
Битрейт : 384 Кбит/сек
Каналы : 6 каналов
Channel layout : L R C LFE Ls Rs
Частота : 48,0 КГц
Частота кадров : 31,250 кадров/сек (1536 SPF)
Битовая глубина : 16 бит
Метод сжатия : С потерями
Размер потока : 335 Мбайт (4%)
Заголовок : Многоголосый закадровый
Язык : Russian
ServiceKind/String : Complete Main
Default : Нет
Forced : Нет

Аудио #4
Идентификатор : 5
Формат : AC-3
Формат/Информация : Audio Coding 3
Коммерческое название : Dolby Digital
Идентификатор кодека : A_AC3
Продолжительность : 2 ч. 2 м.
Вид битрейта : Постоянный
Битрейт : 640 Кбит/сек
Каналы : 6 каналов
Channel layout : L R C LFE Ls Rs
Частота : 48,0 КГц
Частота кадров : 31,250 кадров/сек (1536 SPF)
Битовая глубина : 16 бит
Метод сжатия : С потерями
Размер потока : 559 Мбайт (7%)
Заголовок : Авторский (Андрей Гаврилов)
Язык : Russian
ServiceKind/String : Complete Main
Default : Нет
Forced : Нет

Аудио #5
Идентификатор : 6
Формат : AC-3
Формат/Информация : Audio Coding 3
Коммерческое название : Dolby Digital
Идентификатор кодека : A_AC3
Продолжительность : 2 ч. 2 м.
Вид битрейта : Постоянный
Битрейт : 640 Кбит/сек
Каналы : 6 каналов
Channel layout : L R C LFE Ls Rs
Частота : 48,0 КГц
Частота кадров : 31,250 кадров/сек (1536 SPF)
Битовая глубина : 16 бит
Метод сжатия : С потерями
Размер потока : 559 Мбайт (7%)
Заголовок : Авторский (Юрий Живов)
Язык : Russian
ServiceKind/String : Complete Main
Default : Нет
Forced : Нет

Аудио #6
Идентификатор : 7
Формат : AC-3
Формат/Информация : Audio Coding 3
Коммерческое название : Dolby Digital
Идентификатор кодека : A_AC3
Продолжительность : 2 ч. 2 м.
Вид битрейта : Постоянный
Битрейт : 640 Кбит/сек
Каналы : 6 каналов
Channel layout : L R C LFE Ls Rs
Частота : 48,0 КГц
Частота кадров : 31,250 кадров/сек (1536 SPF)
Битовая глубина : 16 бит
Метод сжатия : С потерями
Размер потока : 559 Мбайт (7%)
Заголовок : Авторский (Владимир Завгородний)
Язык : Russian
ServiceKind/String : Complete Main
Default : Нет
Forced : Нет

Аудио #7
Идентификатор : 8
Формат : AC-3
Формат/Информация : Audio Coding 3
Коммерческое название : Dolby Digital
Идентификатор кодека : A_AC3
Продолжительность : 2 ч. 2 м.
Вид битрейта : Постоянный
Битрейт : 640 Кбит/сек
Каналы : 6 каналов
Channel layout : L R C LFE Ls Rs
Частота : 48,0 КГц
Частота кадров : 31,250 кадров/сек (1536 SPF)
Битовая глубина : 16 бит
Метод сжатия : С потерями
Размер потока : 559 Мбайт (7%)
Заголовок : Авторский (Сергей Визгунов)
Язык : Russian
ServiceKind/String : Complete Main
Default : Нет
Forced : Нет

Аудио #8
Идентификатор : 9
Формат : AC-3
Формат/Информация : Audio Coding 3
Коммерческое название : Dolby Digital
Идентификатор кодека : A_AC3
Продолжительность : 2 ч. 2 м.
Вид битрейта : Постоянный
Битрейт : 640 Кбит/сек
Каналы : 6 каналов
Channel layout : L R C LFE Ls Rs
Частота : 48,0 КГц
Частота кадров : 31,250 кадров/сек (1536 SPF)
Битовая глубина : 16 бит
Метод сжатия : С потерями
Размер потока : 559 Мбайт (7%)
Язык : English
ServiceKind/String : Complete Main
Default : Нет
Forced : Нет

Текст #1
Идентификатор : 10
Формат : UTF-8
Идентификатор кодека : S_TEXT/UTF8
Идентификатор кодека/Информация : UTF-8 Plain Text
Продолжительность : 1 ч. 54 м.
Битрейт : 94 бит/сек
ElementCount : 1387
Размер потока : 79,4 Кбайт (0%)
Заголовок : v1
Язык : Russian
Default : Нет
Forced : Нет

Текст #2
Идентификатор : 11
Формат : UTF-8
Идентификатор кодека : S_TEXT/UTF8
Идентификатор кодека/Информация : UTF-8 Plain Text
Продолжительность : 1 ч. 54 м.
Битрейт : 88 бит/сек
ElementCount : 1371
Размер потока : 74,4 Кбайт (0%)
Заголовок : v2
Язык : Russian
Default : Нет
Forced : Нет

Текст #3
Идентификатор : 12
Формат : UTF-8
Идентификатор кодека : S_TEXT/UTF8
Идентификатор кодека/Информация : UTF-8 Plain Text
Продолжительность : 1 ч. 54 м.
Битрейт : 99 бит/сек
ElementCount : 2068
Размер потока : 83,1 Кбайт (0%)
Заголовок : v3
Язык : Russian
Default : Нет
Forced : Нет

Текст #4
Идентификатор : 13
Формат : UTF-8
Идентификатор кодека : S_TEXT/UTF8
Идентификатор кодека/Информация : UTF-8 Plain Text
Продолжительность : 1 ч. 54 м.
Битрейт : 52 бит/сек
ElementCount : 1367
Размер потока : 43,7 Кбайт (0%)
Заголовок : v1
Язык : English
Default : Нет
Forced : Нет

Текст #5
Идентификатор : 14
Формат : UTF-8
Идентификатор кодека : S_TEXT/UTF8
Идентификатор кодека/Информация : UTF-8 Plain Text
Продолжительность : 1 ч. 54 м.
Битрейт : 51 бит/сек
ElementCount : 1367
Размер потока : 43,0 Кбайт (0%)
Заголовок : v2
Язык : English
Default : Нет
Forced : Нет

Меню
00:00:00.000 : en:Chapter 01
00:03:53.524 : en:Chapter 02
00:08:02.273 : en:Chapter 03
00:12:19.822 : en:Chapter 04
00:15:37.394 : en:Chapter 05
00:20:35.734 : en:Chapter 06
00:25:42.290 : en:Chapter 07
00:32:13.932 : en:Chapter 08
00:36:12.670 : en:Chapter 09
00:40:41.063 : en:Chapter 10
00:45:20.134 : en:Chapter 11
00:47:14.873 : en:Chapter 12
00:49:23.627 : en:Chapter 13
00:55:04.259 : en:Chapter 14
00:59:59.429 : en:Chapter 15
01:02:56.063 : en:Chapter 16
01:09:56.650 : en:Chapter 17
01:15:08.045 : en:Chapter 18
01:20:29.366 : en:Chapter 19
01:24:17.385 : en:Chapter 20
01:29:25.943 : en:Chapter 21
01:33:27.393 : en:Chapter 22
01:37:21.126 : en:Chapter 23
01:41:25.370 : en:Chapter 24
01:44:59.835 : en:Chapter 25
01:48:43.808 : en:Chapter 26
01:52:39.961 : en:Chapter 27
01:55:43.144 : en:Chapter 28
Cкриншот1 Тренировочный день / Training Day (2001) BDRip 1080p [HEVC] 10 bit от OldGamer (RG HEVC-CLUB)
Загружается...
Cкриншот2 Тренировочный день / Training Day (2001) BDRip 1080p [HEVC] 10 bit от OldGamer (RG HEVC-CLUB)
Загружается...
Cкриншот3 Тренировочный день / Training Day (2001) BDRip 1080p [HEVC] 10 bit от OldGamer (RG HEVC-CLUB)
Загружается...
Cкриншот4 Тренировочный день / Training Day (2001) BDRip 1080p [HEVC] 10 bit от OldGamer (RG HEVC-CLUB)
Загружается...
Сэмпл Торрент🧲 Магнет

Кнопки "Позвать в чате" и "Спасибо" доступны только зарегистрированным/авторизованным пользователям!

Файлы: 1
  • Тренировочный.день.Training.Day.2001.BDRip-HEVC.1080p.mkv   8.24 ГБ
Поблагодарили: 19
alexyak, and50, Andry26, brukvalub, Diman, GIS88, Heineken, ivan_1965, Kilop77, ko1ob, korshun, makss333, NoMaD, sergeich, sergeyst, Spartanec1308, torrentzulu, Undervest, vikievan
23.02.2020  23:09:46 OldGamer
0 63 3 1 8.24 ГБ

Добавление нового комментария

Добавление комментариев доступно только зарегистрированным/авторизованным пользователям.