Регистрация / Смена пароля

💬 Мини-чат

(Сегодня) Laska020489:
(Сегодня) OldGamer: ADVOKAT69, ✋
(Сегодня) ADVOKAT69: OldGamer, ✋
(Сегодня) ADVOKAT69: joker63, ✋
(Сегодня) joker63: ADVOKAT69, ✋
(Сегодня) OldGamer: NoMaD, что-нибудь да планируется
(Сегодня) NoMaD: OldGamer, а что планируется после Форсажа???
(Сегодня) OldGamer: joker63, ✋
(Сегодня) joker63: OldGamer, ✋
(31.03.2020) Spartanec1308: joker63, ✋
(31.03.2020) joker63: Spartanec1308, ✋
(31.03.2020) makss333: Раздайте, пожалуйста, 22 мили / Mile 22 (2018) BDRip 1080p [HEVC] 10 bit от HANNIBAL
(31.03.2020) Undervest: Раздайте, пожалуйста, Коза Ностра / The Valachi Papers (1972) BDRip 1080p [HEVC] 10 bit от Joker63
(31.03.2020) OldGamer: joker63, ✋
(31.03.2020) joker63: OldGamer, ✋
(31.03.2020) dresden: Раздайте, пожалуйста, Салют-7 (2017) BDRip 1080p [HEVC] 10 bit от M@kSIMus
(30.03.2020) AlexTwitt: joker63, ✌
(30.03.2020) joker63: AlexTwitt, ✋
(30.03.2020) Admin: OldGamer, но я сначала подожду, пока другие скачают.
(30.03.2020) Admin: OldGamer, учитывая незначительную разницу в суммарном объеме (и то из-за оригинальных дорожек), то я у себя в коллекции заменю на твою.
  • Admin
  • Kosten
  • michael90
  • Priest2017
  • rodina_45
  • silay
  • Undervest
Отправка сообщений доступно только зарегистрированным/авторизованным пользователям.
Онлайн (за 10 мин.): 7

Приключения капитана Врунгеля (1976-1979) BDRip 1080p [HEVC] 10 bit от ADVOKAT69

HEVC
10 bit
Обложка Приключения капитана Врунгеля (1976-1979) BDRip 1080p [HEVC] 10 bit от ADVOKAT69 Год: 1976-1979
Страна: СССР
Студия: Киевнаучфильм
Жанр: Мультфильм, Приключения
Продолжительность: 13 х ~ 00:10:00

Режиссер: Давид Черкасский
В ролях: Георгий Кишко, Зиновий Гердт, Семен Фарада, Эдуард Назаров, Евгений Паперный, Григорий Шпигель, Вениамин Смехов

Описание: Веселая повесть о невероятных приключениях капитана Врунгеля, его старшего помощника Лома и матроса Фукса, совершивших кругосветное путешествие на яхте «Беда».


Исходник: Blu-Ray, «Крупный План», «НД Плэй»
Видео: 1536x1080, 6618 Kbps
Аудио: АС3, 2 ch, 192 Kbps - Русский, Оригинал (Лицензия)
Субтитры: нет

Лог (x265 info)
x265 [info]: frame I: 103, Avg QP:19.85 kb/s: 23175.12
x265 [info]: frame P: 3560, Avg QP:21.86 kb/s: 13768.99
x265 [info]: frame B: 10970, Avg QP:25.95 kb/s: 4323.20
x265 [info]: global : 14633, Avg QP:24.91 kb/s: 6753.92
x265 [info]: Weighted P-Frames: Y:54.3% UV:51.0%
x265 [info]: consecutive B-frames: 3.4% 5.0% 12.0% 54.9% 17.4% 7.2%
Медиаинфо
Общее
Уникальный идентификатор : 233141174515810334400213759185503861967 (0xAF655B5F90B85157B1C89F66626F3CCF)
Полное имя : G:\Мультфильмы\Приключения капитана Врунгеля (1976-1979)\1..mkv
Формат : Matroska
Версия формата : Version 2
Размер файла : 505 Мбайт
Продолжительность : 10 м. 9 с.
Общий поток : 6948 Кбит/сек
Дата кодирования : UTC 2020-02-18 13:28:02
Программа кодирования : mkvmerge v7.8.0 ('River Man') 32bit built on Apr 3 2015 12:11:22
Библиотека кодирования : libebml v1.3.1 + libmatroska v1.4.2

Видео
Идентификатор : 1
Формат : HEVC
Формат/Информация : High Efficiency Video Coding
Профиль формата : Main 10@L4@Main
Идентификатор кодека : V_MPEGH/ISO/HEVC
Продолжительность : 10 м. 9 с.
Битрейт : 6618 Кбит/сек
Ширина : 1536 пикселей
Высота : 1080 пикселей
Соотношение сторон : 1,422
Режим частоты кадров : Постоянный
Частота кадров : 24,000 кадра/сек
Цветовое пространство : YUV
Субдискретизация насыщенности : 4:2:0
Битовая глубина : 10 бит
Бит/(Пиксели*Кадры) : 0.166
Размер потока : 481 Мбайт (95%)
Библиотека кодирования : x265 1.5+88-0e89af0781ee:[Windows][GCC 4.8.2][64 bit] 16bpp
Настройки программы : wpp / ctu=64 / min-cu-size=8 / max-tu-size=32 / tu-intra-depth=1 / tu-inter-depth=1 / me=2 / subme=3 / merange=57 / rect / no-amp / max-merge=3 / temporal-mvp / no-early-skip / rdpenalty=0 / no-tskip / no-tskip-fast / strong-intra-smoothing / no-lossless / no-cu-lossless / no-constrained-intra / no-fast-intra / open-gop / no-temporal-layers / interlace=0 / keyint=240 / min-keyint=23 / scenecut=40 / rc-lookahead=25 / bframes=5 / bframe-bias=0 / b-adapt=2 / ref=4 / weightp / no-weightb / aq-mode=1 / aq-strength=1.00 / cbqpoffs=0 / crqpoffs=0 / rd=4 / psy-rd=0.30 / psy-rdoq=1.00 / signhide / lft / sao / no-sao-non-deblock / b-pyramid / cutree / rc=crf / crf=20.0 / qcomp=0.60 / qpmin=0 / qpmax=51 / qpstep=4 / vbv-maxrate=12000 / vbv-bufsize=12000 / crf-max=0.0 / ipratio=1.40 / pbratio=1.30
Default : Да
Forced : Нет
Цветовой диапазон : Full

Аудио
Идентификатор : 2
Формат : AC-3
Формат/Информация : Audio Coding 3
Коммерческое название : Dolby Digital
Идентификатор кодека : A_AC3
Продолжительность : 10 м. 9 с.
Вид битрейта : Постоянный
Битрейт : 192 Кбит/сек
Каналы : 2 канала
ChannelLayout : L R
Частота : 48,0 КГц
Частота кадров : 31,250 кадров/сек (1536 SPF)
Метод сжатия : С потерями
Размер потока : 14,0 Мбайт (3%)
ServiceKind/String : Complete Main
Default : Да
Forced : Нет
Cкриншот1 Приключения капитана Врунгеля (1976-1979) BDRip 1080p [HEVC] 10 bit от ADVOKAT69
Загружается...
Cкриншот2 Приключения капитана Врунгеля (1976-1979) BDRip 1080p [HEVC] 10 bit от ADVOKAT69
Загружается...
Cкриншот3 Приключения капитана Врунгеля (1976-1979) BDRip 1080p [HEVC] 10 bit от ADVOKAT69
Загружается...
Cкриншот4 Приключения капитана Врунгеля (1976-1979) BDRip 1080p [HEVC] 10 bit от ADVOKAT69
Загружается...
Сэмпл Торрент🧲 Магнет

Кнопки "Позвать в чате" и "Спасибо" доступны только зарегистрированным/авторизованным пользователям!

Раздача обновлена!
Все серии!

Файлы: 13
  • Приключения капитана Врунгеля (1976-1979)
    • 1..mkv   505.05 МБ
    • 10..mkv   514.9 МБ
    • 11..mkv   517.42 МБ
    • 12..mkv   460.04 МБ
    • 13..mkv   494.81 МБ
    • 2..mkv   407.8 МБ
    • 3..mkv   428.56 МБ
    • 4..mkv   465.44 МБ
    • 5..mkv   476.47 МБ
    • 6..mkv   399.01 МБ
    • 7..mkv   438.98 МБ
    • 8..mkv   468 МБ
    • 9..mkv   404.89 МБ
Поблагодарили: 31
Alex302, andre_best, animen67, antaures, aquarius, bad999, brukvalub, Chance, cnn, curly2, D16T, elog, FIXA, garant3v, han-nik, Heineken, iha777, InSpector, ivan_1965, joker1001, Kilop77, LastSurviv0r, maksmax, makss333, mvclub, netfigni, OldGamer, pr3ss, stas67, Undervest, z_artem
29.02.2020  16:58:08 ADVOKAT69
1 52 4 0 (13)  5.84 ГБ

Добавление нового комментария

Добавление комментариев доступно только зарегистрированным/авторизованным пользователям.
Аватар ADVOKAT69
  ADVOKAT69  20.02.2020  19:10:29
Раздача будет обновляться!