Регистрация / Смена пароля

💬 Мини-чат

(Сегодня) ADVOKAT69: Laska020489, ✋
(Сегодня) Laska020489:
(Сегодня) OldGamer: ADVOKAT69, ✋
(Сегодня) ADVOKAT69: OldGamer, ✋
(Сегодня) ADVOKAT69: joker63, ✋
(Сегодня) joker63: ADVOKAT69, ✋
(Сегодня) OldGamer: NoMaD, что-нибудь да планируется
(Сегодня) NoMaD: OldGamer, а что планируется после Форсажа???
(Сегодня) OldGamer: joker63, ✋
(Сегодня) joker63: OldGamer, ✋
(31.03.2020) Spartanec1308: joker63, ✋
(31.03.2020) joker63: Spartanec1308, ✋
(31.03.2020) makss333: Раздайте, пожалуйста, 22 мили / Mile 22 (2018) BDRip 1080p [HEVC] 10 bit от HANNIBAL
(31.03.2020) Undervest: Раздайте, пожалуйста, Коза Ностра / The Valachi Papers (1972) BDRip 1080p [HEVC] 10 bit от Joker63
(31.03.2020) OldGamer: joker63, ✋
(31.03.2020) joker63: OldGamer, ✋
(31.03.2020) dresden: Раздайте, пожалуйста, Салют-7 (2017) BDRip 1080p [HEVC] 10 bit от M@kSIMus
(30.03.2020) AlexTwitt: joker63, ✌
(30.03.2020) joker63: AlexTwitt, ✋
(30.03.2020) Admin: OldGamer, но я сначала подожду, пока другие скачают.
  • AD_60
  • dimasij
  • grudich
  • Renard_roux
  • Zulbay
  • Ярослав
Отправка сообщений доступно только зарегистрированным/авторизованным пользователям.
Онлайн (за 10 мин.): 6

Черное и синее / Black and Blue (2019) [iTunes] BDRip 1080p [HEVC] 10 bit от HANNIBAL

HEVC
10 bit
Обложка Черное и синее / Black and Blue (2019) [iTunes] BDRip 1080p [HEVC] 10 bit от HANNIBAL Год: 2019
Страна: США
Студия: Hidden Empire Film Group, Royal Viking Entertainment, Screen Gems
Жанр: Боевик, Триллер, Драма, Криминал
Продолжительность: 01:47:57

Режиссер: Деон Тейлор
В ролях: Наоми Харрис, Тайриз Гибсон, Фрэнк Грилло, Майк Колтер, Бо Напп, Рейд Скотт, Нафиса Уильямс, Карсин Тейлор, Кевин Джонсон, Фрэнки Смит

Описание: Молодая сотрудница полиции Нового Орлеана становится очевидицей того, как коррумпированные офицеры убивают наркодилера, произошедшее остается записанным на ее камеру. Копы охотятся за ней, чтобы уничтожить запись, но вскоре все становится еще хуже: они убеждают криминальную банду, что именно девушка виновна в смерти дилера.

КиноПоиск
6.263 1733
IMDb
6.2
9054


Видео: 1920x804, 10.8 Mbps
Аудио1: AC3, 6 ch, 384 Kbps -
Русский, Многоголосый (iTunes)
Аудио2: AC3, 6 ch, 448 Kbps -
Английский, Оригинал
Субтитры: Русские, английские

Как за пару секунд удалить ненужные аудиодорожки и субтитры (Внимание! После удаления вы не сможете поддержать раздачу)

Медиаинфо
General
Unique ID : 147489293869084673726403799562004845235 (0x6EF5679DF39AF8346848A25881F9D2B3)
Complete name : D:\Black and Blue (2019) BDRip-HEVC 1080p 10bit.mkv
Format : Matroska
Format version : Version 4
File size : 8.76 GiB
Duration : 1 h 47 min
Overall bit rate : 11.6 Mb/s
Movie name : Черное и синее
Encoded date : UTC 2020-01-18 15:35:35
Writing application : mkvmerge v25.0.0 ('Prog Noir') 64-bit
Writing library : libebml v1.3.6 + libmatroska v1.4.9 / Lavf57.71.100
Cover : Yes
Attachments : poster.jpg / cover.png
ACTORS : Наоми Харрис, Тайриз Гибсон,
COUNTRY : США
DATE : 2019
DIRECTOR : Деон Тейлор
ENCODING_INFO : MATROSKA,WEBM > MKV Пользовательский / H264 > X265 CRF 19.0 Slow
GENRE : боевик, триллер, драма
HD_VIDEO : 1
Language : und
MEDIA_TYPE : 9
ORIGINAL_TITLE : Black and Blue

Video
ID : 1
Format : HEVC
Format/Info : High Efficiency Video Coding
Format profile : Main 10@L4.1@High
Codec ID : V_MPEGH/ISO/HEVC
Duration : 1 h 47 min
Bit rate : 10.8 Mb/s
Width : 1 920 pixels
Height : 804 pixels
Display aspect ratio : 2.40:1
Frame rate mode : Constant
Frame rate : 23.976 (24000/1001) FPS
Color space : YUV
Chroma subsampling : 4:2:0
Bit depth : 10 bits
Bits/(Pixel*Frame) : 0.291
Stream size : 8.13 GiB (93%)
Writing library : x265 3.1+7-147fb92c5ed5:[Windows][clang 8.0.0][64 bit] 10bit
Encoding settings : cpuid=1111039 / frame-threads=13 / wpp / no-pmode / no-pme / no-psnr / no-ssim / log-level=3 / input-csp=1 / input-res=1920x804 / interlace=0 / total-frames=0 / level-idc=41 / high-tier=1 / uhd-bd=0 / ref=5 / allow-non-conformance / no-repeat-headers / annexb / no-aud / no-hrd / info / hash=0 / no-temporal-layers / open-gop / min-keyint=23 / keyint=240 / gop-lookahead=0 / bframes=8 / b-adapt=2 / b-pyramid / bframe-bias=0 / rc-lookahead=60 / lookahead-slices=4 / scenecut=60 / radl=0 / no-splice / no-intra-refresh / ctu=64 / min-cu-size=8 / rect / amp / max-tu-size=32 / tu-inter-depth=4 / tu-intra-depth=4 / limit-tu=4 / rdoq-level=2 / dynamic-rd=0.00 / no-ssim-rd / signhide / no-tskip / nr-intra=0 / nr-inter=0 / no-constrained-intra / no-strong-intra-smoothing / max-merge=5 / limit-refs=3 / limit-modes / me=3 / subme=7 / merange=57 / temporal-mvp / no-hme / weightp / weightb / no-analyze-src-pics / deblock=-3:-3 / no-sao / no-sao-non-deblock / rd=6 / no-early-skip / no-rskip / no-fast-intra / no-tskip-fast / no-cu-lossless / no-b-intra / no-splitrd-skip / rdpenalty=0 / psy-rd=2.00 / psy-rdoq=1.00 / no-rd-refine / no-lossless / cbqpoffs=0 / crqpoffs=0 / rc=crf / crf=19.0 / qcomp=0.60 / qpstep=4 / stats-write=0 / stats-read=0 / vbv-maxrate=50000 / vbv-bufsize=50000 / vbv-init=0.9 / crf-max=30.0 / crf-min=0.0 / ipratio=1.40 / pbratio=1.30 / aq-mode=2 / aq-strength=1.00 / no-cutree / zone-count=0 / no-strict-cbr / qg-size=32 / no-rc-grain / qpmax=69 / qpmin=0 / no-const-vbv / sar=1 / overscan=0 / videoformat=5 / range=0 / colorprim=1 / transfer=1 / colormatrix=1 / chromaloc=0 / display-window=0cll=0,0 / min-luma=0 / max-luma=1023 / log2-max-poc-lsb=8 / vui-timing-info / vui-hrd-info / slices=1 / no-opt-qp-pps / no-opt-ref-list-length-pps / no-multi-pass-opt-rps / scenecut-bias=0.05 / no-opt-cu-delta-qp / no-aq-motion / no-hdr / no-hdr-opt / no-dhdr10-opt / no-idr-recovery-sei / analysis-reuse-level=5 / scale-factor=0 / refine-intra=0 / refine-inter=0 / refine-mv=0 / refine-ctu-distortion=0 / no-limit-sao / ctu-info=0 / no-lowpass-dct / refine-analysis-type=536896768 / copy-pic=1 / max-ausize-factor=1.0 / no-dynamic-refine / no-single-sei / no-hevc-aq / no-svt / no-field / qp-adaptation-range=1.00
Language : English
Default : Yes
Forced : No
Color range : Limited
Color primaries : BT.709
Transfer characteristics : BT.709
Matrix coefficients : BT.709

Audio #1
ID : 2
Format : AC-3
Format/Info : Audio Coding 3
Commercial name : Dolby Digital
Codec ID : A_AC3
Duration : 1 h 47 min
Bit rate mode : Constant
Bit rate : 384 kb/s
Channel(s) : 6 channels
Channel layout : L R C LFE Ls Rs
Sampling rate : 48.0 kHz
Frame rate : 31.250 FPS (1536 SPF)
Compression mode : Lossy
Stream size : 296 MiB (3%)
Title : MVO (iTunes)
Language : Russian
Service kind : Complete Main
Default : Yes
Forced : No

Audio #2
ID : 3
Format : AC-3
Format/Info : Audio Coding 3
Commercial name : Dolby Digital
Codec ID : A_AC3
Duration : 1 h 47 min
Bit rate mode : Constant
Bit rate : 448 kb/s
Channel(s) : 6 channels
Channel layout : L R C LFE Ls Rs
Sampling rate : 48.0 kHz
Frame rate : 31.250 FPS (1536 SPF)
Compression mode : Lossy
Stream size : 346 MiB (4%)
Title : Original
Language : English
Service kind : Complete Main
Default : No
Forced : No

Text #1
ID : 4
Format : UTF-8
Codec ID : S_TEXT/UTF8
Codec ID/Info : UTF-8 Plain Text
Duration : 1 h 47 min
Bit rate : 64 b/s
Count of elements : 1251
Stream size : 51.2 KiB (0%)
Title : Full
Language : Russian
Default : Yes
Forced : No

Text #2
ID : 5
Format : UTF-8
Codec ID : S_TEXT/UTF8
Codec ID/Info : UTF-8 Plain Text
Duration : 1 h 43 min
Bit rate : 51 b/s
Count of elements : 1245
Stream size : 38.6 KiB (0%)
Title : Full
Language : English
Default : No
Forced : No

Menu
00:00:00.000 : :Chapter 01
00:05:26.284 : :Chapter 02
00:10:36.886 : :Chapter 03
00:16:38.581 : :Chapter 04
00:23:32.995 : :Chapter 05
00:30:25.532 : :Chapter 06
00:39:08.888 : :Chapter 07
00:47:23.674 : :Chapter 08
00:55:04.176 : :Chapter 09
01:01:54.544 : :Chapter 10
01:09:42.595 : :Chapter 11
01:17:41.782 : :Chapter 12
01:21:47.152 : :Chapter 13
01:24:41.368 : :Chapter 14
01:30:23.710 : :Chapter 15
01:40:20.973 : :Chapter 16
Cкриншот1 Черное и синее / Black and Blue (2019) [iTunes] BDRip 1080p [HEVC] 10 bit от HANNIBAL
Загружается...
Cкриншот2 Черное и синее / Black and Blue (2019) [iTunes] BDRip 1080p [HEVC] 10 bit от HANNIBAL
Загружается...
Cкриншот3 Черное и синее / Black and Blue (2019) [iTunes] BDRip 1080p [HEVC] 10 bit от HANNIBAL
Загружается...
Cкриншот4 Черное и синее / Black and Blue (2019) [iTunes] BDRip 1080p [HEVC] 10 bit от HANNIBAL
Загружается...
Сэмпл Торрент🧲 Магнет

Кнопки "Позвать в чате" и "Спасибо" доступны только зарегистрированным/авторизованным пользователям!

Файлы: 1
  • Black and Blue (2019) BDRip-HEVC 1080p 10bit.mkv   8.76 ГБ
Поблагодарили: 5
and50, Flann, Imp3rr0r, makss333, Херсонец
19.01.2020  13:20:48 Admin
0 88 0 0 8.76 ГБ

Добавление нового комментария

Добавление комментариев доступно только зарегистрированным/авторизованным пользователям.