Регистрация / Смена пароля

💬 Мини-чат

(Сегодня) ADVOKAT69: Laska020489, ✋
(Сегодня) Laska020489:
(Сегодня) OldGamer: ADVOKAT69, ✋
(Сегодня) ADVOKAT69: OldGamer, ✋
(Сегодня) ADVOKAT69: joker63, ✋
(Сегодня) joker63: ADVOKAT69, ✋
(Сегодня) OldGamer: NoMaD, что-нибудь да планируется
(Сегодня) NoMaD: OldGamer, а что планируется после Форсажа???
(Сегодня) OldGamer: joker63, ✋
(Сегодня) joker63: OldGamer, ✋
(31.03.2020) Spartanec1308: joker63, ✋
(31.03.2020) joker63: Spartanec1308, ✋
(31.03.2020) makss333: Раздайте, пожалуйста, 22 мили / Mile 22 (2018) BDRip 1080p [HEVC] 10 bit от HANNIBAL
(31.03.2020) Undervest: Раздайте, пожалуйста, Коза Ностра / The Valachi Papers (1972) BDRip 1080p [HEVC] 10 bit от Joker63
(31.03.2020) OldGamer: joker63, ✋
(31.03.2020) joker63: OldGamer, ✋
(31.03.2020) dresden: Раздайте, пожалуйста, Салют-7 (2017) BDRip 1080p [HEVC] 10 bit от M@kSIMus
(30.03.2020) AlexTwitt: joker63, ✌
(30.03.2020) joker63: AlexTwitt, ✋
(30.03.2020) Admin: OldGamer, но я сначала подожду, пока другие скачают.
  • ADVOKAT69
  • AD_60
  • aqutagava
  • Dentiger
  • Dude
  • grudich
  • magni
  • Renard_roux
  • segalu
  • WarMaster
  • Ярослав
Отправка сообщений доступно только зарегистрированным/авторизованным пользователям.
Онлайн (за 10 мин.): 11

Гемини / Gemini Man (2019) BDRip 1080p [HEVC] 10 bit от HANNIBAL

HEVC
10 bit
Обложка Гемини / Gemini Man (2019) BDRip 1080p [HEVC] 10 bit от HANNIBAL Год: 2019
Страна: США, Китай
Студия: Skydance Media, Jerry Bruckheimer Films, Fosun Group Forever Pictures
Жанр: Боевик, Фантастика
Продолжительность: 01:57:00

Режиссер: Энг Ли
В ролях: Уилл Смит, Мэри Элизабет Уинстэд, Клайв Оуэн, Бенедикт Вонг, Дуглас Ходж, Ральф Браун, Линда Эмонд, Илья Волох, Э.Дж. Бонилья, Виктор Хьюго

Описание: Первоклассный киллер Генри Броган становится мишенью таинственного оперативника, который, кажется, знает наперёд каждый его шаг.

КиноПоиск
5.783 21444
IMDb
5.7
59662


Видео: 1920x1036, 7330 Kbps
Аудио1: AC3, 6 ch, 640 Kbps -
Русский, Дублированный (Лицензия)
Аудио2: AC3, 6 ch, 640 Kbps -
Английский, Оригинал
Субтитры: Русские (форсированные, полные), английские

Как за пару секунд удалить ненужные аудиодорожки и субтитры (Внимание! После удаления вы не сможете поддержать раздачу)

Медиаинфо
General
Unique ID : 103435311586037584529073109340471209390 (0x4DD0EA987927D98566A293F4A430ADAE)
Complete name : H:[HEVC]Gemini Man (2019) BDRip 1080p [HEVC] 10bit.mkv
Format : Matroska
Format version : Version 4
File size : 7.04 GiB
Duration : 1 h 57 min
Overall bit rate : 8 612 kb/s
Movie name : Гемини
Encoded date : UTC 2020-02-01 06:50:44
Writing application : mkvmerge v25.0.0 ('Prog Noir') 64-bit
Writing library : libebml v1.3.6 + libmatroska v1.4.9 / Lavf57.71.100
Attachments : poster.jpg
ACTORS : Уилл Смит, Мэри Элизабет Уинстэд,
COUNTRY : США
DATE : 2019
DIRECTOR : Энг Ли
ENCODING_INFO : MATROSKA,WEBM > MKV 1080p 10-bit / H264 > X265 CRF 19.0 Slower / AC3 > AC3 CBR 448kbps / AC3 > AC3 CBR 448kbps
GENRE : боевик, фантастика
HD_VIDEO : 1
Language : und
MEDIA_TYPE : 9
ORIGINAL_TITLE : Gemini Man

Video
ID : 1
Format : HEVC
Format/Info : High Efficiency Video Coding
Format profile : Main 10@L4.1@High
Codec ID : V_MPEGH/ISO/HEVC
Duration : 1 h 57 min
Bit rate : 7 330 kb/s
Width : 1 920 pixels
Height : 1 036 pixels
Display aspect ratio : 1.85:1
Frame rate mode : Constant
Frame rate : 23.976 (24000/1001) FPS
Color space : YUV
Chroma subsampling : 4:2:0
Bit depth : 10 bits
Bits/(Pixel*Frame) : 0.154
Stream size : 5.99 GiB (85%)
Writing library : x265 3.1+7-147fb92c5ed5:[Windows][clang 8.0.0][64 bit] 10bit
Encoding settings : cpuid=1111039 / frame-threads=7 / wpp / no-pmode / no-pme / no-psnr / no-ssim / log-level=3 / input-csp=1 / input-res=1920x1036 / interlace=0 / total-frames=0 / level-idc=41 / high-tier=1 / uhd-bd=0 / ref=5 / allow-non-conformance / no-repeat-headers / annexb / no-aud / no-hrd / info / hash=0 / no-temporal-layers / open-gop / min-keyint=23 / keyint=240 / gop-lookahead=0 / bframes=8 / b-adapt=2 / b-pyramid / bframe-bias=0 / rc-lookahead=60 / lookahead-slices=4 / scenecut=40 / radl=0 / no-splice / no-intra-refresh / ctu=64 / min-cu-size=8 / rect / amp / max-tu-size=32 / tu-inter-depth=4 / tu-intra-depth=4 / limit-tu=4 / rdoq-level=2 / dynamic-rd=0.00 / no-ssim-rd / signhide / no-tskip / nr-intra=0 / nr-inter=0 / no-constrained-intra / no-strong-intra-smoothing / max-merge=5 / limit-refs=1 / limit-modes / me=3 / subme=7 / merange=57 / temporal-mvp / no-hme / weightp / weightb / no-analyze-src-pics / deblock=-3:-3 / no-sao / no-sao-non-deblock / rd=6 / no-early-skip / no-rskip / no-fast-intra / no-tskip-fast / no-cu-lossless / b-intra / no-splitrd-skip / rdpenalty=0 / psy-rd=2.00 / psy-rdoq=1.00 / no-rd-refine / no-lossless / cbqpoffs=0 / crqpoffs=0 / rc=crf / crf=19.0 / qcomp=0.60 / qpstep=4 / stats-write=0 / stats-read=0 / vbv-maxrate=50000 / vbv-bufsize=50000 / vbv-init=0.9 / crf-max=30.0 / crf-min=0.0 / ipratio=1.40 / pbratio=1.30 / aq-mode=2 / aq-strength=1.00 / no-cutree / zone-count=0 / no-strict-cbr / qg-size=32 / no-rc-grain / qpmax=69 / qpmin=0 / no-const-vbv / sar=1 / overscan=0 / videoformat=5 / range=0 / colorprim=1 / transfer=1 / colormatrix=1 / chromaloc=0 / display-window=0cll=0,0 / min-luma=0 / max-luma=1023 / log2-max-poc-lsb=8 / vui-timing-info / vui-hrd-info / slices=1 / no-opt-qp-pps / no-opt-ref-list-length-pps / no-multi-pass-opt-rps / scenecut-bias=0.05 / no-opt-cu-delta-qp / no-aq-motion / no-hdr / no-hdr-opt / no-dhdr10-opt / no-idr-recovery-sei / analysis-reuse-level=5 / scale-factor=0 / refine-intra=0 / refine-inter=0 / refine-mv=0 / refine-ctu-distortion=0 / no-limit-sao / ctu-info=0 / no-lowpass-dct / refine-analysis-type=-2030459017 / copy-pic=1 / max-ausize-factor=1.0 / no-dynamic-refine / no-single-sei / no-hevc-aq / no-svt / no-field / qp-adaptation-range=1.00
Language : English
Default : Yes
Forced : No
Color range : Limited
Color primaries : BT.709
Transfer characteristics : BT.709
Matrix coefficients : BT.709

Audio #1
ID : 2
Format : AC-3
Format/Info : Audio Coding 3
Commercial name : Dolby Digital
Codec ID : A_AC3
Duration : 1 h 57 min
Bit rate mode : Constant
Bit rate : 640 kb/s
Channel(s) : 6 channels
Channel layout : L R C LFE Ls Rs
Sampling rate : 48.0 kHz
Frame rate : 31.250 FPS (1536 SPF)
Compression mode : Lossy
Stream size : 536 MiB (7%)
Title : Dub [License]
Language : Russian
Service kind : Complete Main
Default : Yes
Forced : No

Audio #2
ID : 3
Format : AC-3
Format/Info : Audio Coding 3
Commercial name : Dolby Digital
Codec ID : A_AC3
Duration : 1 h 57 min
Bit rate mode : Constant
Bit rate : 640 kb/s
Channel(s) : 6 channels
Channel layout : L R C LFE Ls Rs
Sampling rate : 48.0 kHz
Frame rate : 31.250 FPS (1536 SPF)
Compression mode : Lossy
Stream size : 536 MiB (7%)
Title : Original
Language : English
Service kind : Complete Main
Default : No
Forced : No

Text #1
ID : 4
Format : UTF-8
Codec ID : S_TEXT/UTF8
Codec ID/Info : UTF-8 Plain Text
Duration : 1 h 55 min
Bit rate : 0 b/s
Count of elements : 16
Stream size : 581 Bytes (0%)
Title : Forced
Language : Russian
Default : No
Forced : Yes

Text #2
ID : 5
Format : UTF-8
Codec ID : S_TEXT/UTF8
Codec ID/Info : UTF-8 Plain Text
Duration : 1 h 55 min
Bit rate : 69 b/s
Count of elements : 1336
Stream size : 59.1 KiB (0%)
Title : Full
Language : Russian
Default : Yes
Forced : No

Text #3
ID : 6
Format : UTF-8
Codec ID : S_TEXT/UTF8
Codec ID/Info : UTF-8 Plain Text
Duration : 1 h 45 min
Bit rate : 49 b/s
Count of elements : 1356
Stream size : 38.5 KiB (0%)
Title : Full
Language : English
Default : No
Forced : No

Menu
00:00:00.000 : :Глава 01
00:07:21.650 : :Глава 02
00:15:31.681 : :Глава 03
00:18:13.134 : :Глава 04
00:24:39.520 : :Глава 05
00:30:59.441 : :Глава 06
00:34:09.464 : :Глава 07
00:42:40.308 : :Глава 08
00:50:24.897 : :Глава 09
00:56:45.819 : :Глава 10
01:03:30.306 : :Глава 11
01:08:13.172 : :Глава 12
01:16:45.935 : :Глава 13
01:24:43.996 : :Глава 14
01:30:04.733 : :Глава 15
01:34:00.927 : :Глава 16
01:42:14.462 : :Глава 17
01:47:07.588 : :Глава 18
Cкриншот1 Гемини / Gemini Man (2019) BDRip 1080p [HEVC] 10 bit от HANNIBAL
Загружается...
Cкриншот2 Гемини / Gemini Man (2019) BDRip 1080p [HEVC] 10 bit от HANNIBAL
Загружается...
Cкриншот3 Гемини / Gemini Man (2019) BDRip 1080p [HEVC] 10 bit от HANNIBAL
Загружается...
Cкриншот4 Гемини / Gemini Man (2019) BDRip 1080p [HEVC] 10 bit от HANNIBAL
Загружается...
Сэмпл Торрент🧲 Магнет

Кнопки "Позвать в чате" и "Спасибо" доступны только зарегистрированным/авторизованным пользователям!

Раздача обновлена!
Дубляж заменен на лицензионный. Оригинальная дорожка заменена с 448 на 640 кбит/с. Добавлены форсированные субтитры.

Файлы: 1
  • Gemini Man (2019) BDRip 1080p [HEVC] 10bit.mkv   7.04 ГБ
Поблагодарили: 15
antaures, brukvalub, D16T, F2002, grudich, han-nik, Imp3rr0r, mat, NRK888, Nuclear70, SAVOYAR, Sega, sergeich, silver, Vitoss6
01.02.2020  11:09:00 Admin
0 202 0 1 7.04 ГБ

Добавление нового комментария

Добавление комментариев доступно только зарегистрированным/авторизованным пользователям.