Регистрация / Смена пароля

💬 Мини-чат

(Сегодня) ADVOKAT69: Laska020489, ✋
(Сегодня) Laska020489:
(Сегодня) OldGamer: ADVOKAT69, ✋
(Сегодня) ADVOKAT69: OldGamer, ✋
(Сегодня) ADVOKAT69: joker63, ✋
(Сегодня) joker63: ADVOKAT69, ✋
(Сегодня) OldGamer: NoMaD, что-нибудь да планируется
(Сегодня) NoMaD: OldGamer, а что планируется после Форсажа???
(Сегодня) OldGamer: joker63, ✋
(Сегодня) joker63: OldGamer, ✋
(31.03.2020) Spartanec1308: joker63, ✋
(31.03.2020) joker63: Spartanec1308, ✋
(31.03.2020) makss333: Раздайте, пожалуйста, 22 мили / Mile 22 (2018) BDRip 1080p [HEVC] 10 bit от HANNIBAL
(31.03.2020) Undervest: Раздайте, пожалуйста, Коза Ностра / The Valachi Papers (1972) BDRip 1080p [HEVC] 10 bit от Joker63
(31.03.2020) OldGamer: joker63, ✋
(31.03.2020) joker63: OldGamer, ✋
(31.03.2020) dresden: Раздайте, пожалуйста, Салют-7 (2017) BDRip 1080p [HEVC] 10 bit от M@kSIMus
(30.03.2020) AlexTwitt: joker63, ✌
(30.03.2020) joker63: AlexTwitt, ✋
(30.03.2020) Admin: OldGamer, но я сначала подожду, пока другие скачают.
  • AD_60
  • dimasij
  • grudich
  • Renard_roux
  • Zulbay
  • Ярослав
Отправка сообщений доступно только зарегистрированным/авторизованным пользователям.
Онлайн (за 10 мин.): 6

Оно 2 / It Chapter Two (2019) BDRip 1080p [HEVC] 10 bit от Mr. Fox

HEVC
10 bit
Обложка Оно 2 / It Chapter Two (2019) BDRip 1080p [HEVC] 10 bit от Mr. Fox Год: 2019
Страна: Канада, США
Студия: KatzSmith Productions, Lin Pictures, New Line Cinema
Жанр: Ужасы, Фэнтези, Драма
Продолжительность: 02:49:25

Режиссер: Андрес Мускетти
В ролях: Джессика Честейн, Джеймс МакЭвой, Билл Хейдер, Айзая Мустафа, Джей Райан, Джеймс Рэнсон, Энди Бин, Билл Скарсгард, Джейден Мартелл, Уайатт Олефф

Описание: Проходит 27 лет после первой встречи ребят с демоническим Пеннивайзом. Они выросли, покинули родной городок и практически забыли о тех страшных событиях, но неожиданно в их взрослые проблемы вторгается телефонный звонок. Майк никогда не покидал Дерри и всё это время собирал информацию о жутком клоуне и ждал. Когда в городе начали происходить новые убийства, Майк просит старых друзей вновь собраться вместе и разобраться со злом города Дерри раз и навсегда.

КиноПоиск
6.593 80563
IMDb
6.6
164677


Видео: 1920x804, 5468 Kbps
Аудио1: AC3, 6 ch, 448 Kbps -
Русский, Дублированный (Лицензия)
Аудио2: AC3, 6 ch, 384 Kbps -
Украинский, Дублированный
Аудио3: AC3, 6 ch, 640 Kbps -
Английский, Оригинал
Субтитры: Русские (форсированные, полные), украинские (форсированные), английские (SDH)

Как за пару секунд удалить ненужные аудиодорожки и субтитры (Внимание! После удаления вы не сможете поддержать раздачу)

Медиаинфо
Общее
Уникальный идентификатор : 305259849135662410858076149468629733803 (0xE5A6E88EAB2A0C738B6D60384AEA91AB)
Полное имя : R:\It Chapter Two (2019) BDRip 1080p [HEVC] (1).mkv
Формат : Matroska
Версия формата : Version 4 / Version 2
Размер файла : 8,22 Гбайт
Продолжительность : 2 ч. 49 м.
Общий поток : 6943 Кбит/сек
Дата кодирования : UTC 2019-12-27 05:59:31
Программа кодирования : mkvmerge v28.2.0 ('The Awakening') 64-bit
Библиотека кодирования : libebml v1.3.6 + libmatroska v1.4.9
Обложка : Yes
Attachments : cover.jpg / poster.jpg

Видео
Идентификатор : 1
Формат : HEVC
Формат/Информация : High Efficiency Video Coding
Профиль формата : Main 10@L4.1@High
Идентификатор кодека : V_MPEGH/ISO/HEVC
Продолжительность : 2 ч. 49 м.
Битрейт : 5468 Кбит/сек
Ширина : 1920 пикселей
Высота : 804 пикселя
Соотношение сторон : 2,40:1
Режим частоты кадров : Постоянный
Частота кадров : 23,976 (23976/1000) кадра/сек
Частота кадров в оригинале : 23,976 (24000/1001) кадра/сек
Цветовое пространство : YUV
Субдискретизация насыщенности : 4:2:0
Битовая глубина : 10 бит
Бит/(Пиксели*Кадры) : 0.148
Размер потока : 6,47 Гбайт (79%)
Библиотека кодирования : x265 3.2.1+1-b5c86a64bbbe:[Windows][MSVC 1923][64 bit] 10bit
Настройки программы : cpuid=1111039 / frame-threads=3 / numa-pools=12 / wpp / no-pmode / no-pme / no-psnr / no-ssim / log-level=2 / input-csp=1 / input-res=1920x804 / interlace=0 / total-frames=563 / level-idc=41 / high-tier=1 / uhd-bd=0 / ref=5 / no-allow-non-conformance / no-repeat-headers / annexb / no-aud / no-hrd / info / hash=0 / no-temporal-layers / open-gop / min-keyint=23 / keyint=240 / gop-lookahead=0 / bframes=12 / b-adapt=2 / b-pyramid / bframe-bias=0 / rc-lookahead=60 / lookahead-slices=4 / scenecut=40 / radl=0 / no-splice / no-intra-refresh / ctu=32 / min-cu-size=8 / rect / amp / max-tu-size=32 / tu-inter-depth=4 / tu-intra-depth=4 / limit-tu=1 / rdoq-level=2 / dynamic-rd=0.00 / no-ssim-rd / signhide / no-tskip / nr-intra=0 / nr-inter=0 / no-constrained-intra / no-strong-intra-smoothing / max-merge=4 / limit-refs=2 / limit-modes / me=3 / subme=7 / merange=57 / temporal-mvp / no-hme / weightp / weightb / no-analyze-src-pics / deblock=-3:-3 / no-sao / no-sao-non-deblock / rd=6 / selective-sao=0 / no-early-skip / no-rskip / no-fast-intra / no-tskip-fast / no-cu-lossless / no-b-intra / no-splitrd-skip / rdpenalty=0 / psy-rd=2.00 / psy-rdoq=1.00 / no-rd-refine / no-lossless / cbqpoffs=0 / crqpoffs=0 / rc=crf / crf=20.0 / qcomp=0.60 / qpstep=4 / stats-write=0 / stats-read=0 / vbv-maxrate=50000 / vbv-bufsize=50000 / vbv-init=0.9 / crf-max=0.0 / crf-min=0.0 / ipratio=1.40 / pbratio=1.30 / aq-mode=1 / aq-strength=1.00 / no-cutree / zone-count=0 / no-strict-cbr / qg-size=32 / no-rc-grain / qpmax=69 / qpmin=0 / no-const-vbv / sar=1 / overscan=0 / videoformat=5 / range=0 / colorprim=1 / transfer=1 / colormatrix=1 / chromaloc=0 / display-window=0 / cll=0,0 / min-luma=0 / max-luma=1023 / log2-max-poc-lsb=8 / vui-timing-info / vui-hrd-info / slices=1 / no-opt-qp-pps / no-opt-ref-list-length-pps / no-multi-pass-opt-rps / scenecut-bias=0.05 / no-opt-cu-delta-qp / no-aq-motion / no-hdr / no-hdr-opt / no-dhdr10-opt / no-idr-recovery-sei / analysis-reuse-level=5 / scale-factor=0 / refine-intra=0 / refine-inter=0 / refine-mv=1 / refine-ctu-distortion=0 / no-limit-sao / ctu-info=0 / no-lowpass-dct / refine-analysis-type=0 / copy-pic=1 / max-ausize-factor=1.0 / no-dynamic-refine / no-single-sei / no-hevc-aq / no-svt / no-field / qp-adaptation-range=1.00
Default : Да
Forced : Нет
Цветовой диапазон : Limited
Основные цвета : BT.709
Характеристики трансфера : BT.709
Коэффициенты матрицы : BT.709

Аудио #1
Идентификатор : 2
Формат : AC-3
Формат/Информация : Audio Coding 3
Идентификатор кодека : A_AC3
Продолжительность : 2 ч. 49 м.
Вид битрейта : Постоянный
Битрейт : 448 Кбит/сек
Каналы : 6 каналов
Расположение каналов : Front: L C R, Side: L R, LFE
Частота : 48,0 КГц
Частота кадров : 31,250 кадров/сек (1536 SPF)
Битовая глубина : 16 бит
Метод сжатия : С потерями
Размер потока : 543 Мбайт (6%)
Заголовок : Dub (License)
Язык : Russian
ServiceKind/String : Complete Main
Default : Да
Forced : Нет

Аудио #2
Идентификатор : 3
Формат : AC-3
Формат/Информация : Audio Coding 3
Идентификатор кодека : A_AC3
Продолжительность : 2 ч. 49 м.
Вид битрейта : Постоянный
Битрейт : 384 Кбит/сек
Каналы : 6 каналов
Расположение каналов : Front: L C R, Side: L R, LFE
Частота : 48,0 КГц
Частота кадров : 31,250 кадров/сек (1536 SPF)
Битовая глубина : 16 бит
Метод сжатия : С потерями
Размер потока : 465 Мбайт (6%)
Заголовок : Dub
Язык : Ukrainian
ServiceKind/String : Complete Main
Default : Нет
Forced : Нет

Аудио #3
Идентификатор : 4
Формат : AC-3
Формат/Информация : Audio Coding 3
Идентификатор кодека : A_AC3
Продолжительность : 2 ч. 49 м.
Вид битрейта : Постоянный
Битрейт : 640 Кбит/сек
Каналы : 6 каналов
Расположение каналов : Front: L C R, Side: L R, LFE
Частота : 48,0 КГц
Частота кадров : 31,250 кадров/сек (1536 SPF)
Битовая глубина : 16 бит
Метод сжатия : С потерями
Размер потока : 776 Мбайт (9%)
Заголовок : Original
Язык : English
ServiceKind/String : Complete Main
Default : Нет
Forced : Нет

Текст #1
Идентификатор : 5
Формат : UTF-8
Идентификатор кодека : S_TEXT/UTF8
Идентификатор кодека/Информация : UTF-8 Plain Text
Продолжительность : 2 ч. 48 м.
Битрейт : 1 бит/сек
ElementCount : 68
Размер потока : 2,40 Кбайт (0%)
Заголовок : Forced
Язык : Russian
Default : Да
Forced : Да

Текст #2
Идентификатор : 6
Формат : UTF-8
Идентификатор кодека : S_TEXT/UTF8
Идентификатор кодека/Информация : UTF-8 Plain Text
Продолжительность : 2 ч. 48 м.
Битрейт : 76 бит/сек
ElementCount : 2331
Размер потока : 94,7 Кбайт (0%)
Заголовок : Full
Язык : Russian
Default : Нет
Forced : Нет

Текст #3
Идентификатор : 7
Формат : UTF-8
Идентификатор кодека : S_TEXT/UTF8
Идентификатор кодека/Информация : UTF-8 Plain Text
Продолжительность : 2 ч. 48 м.
Битрейт : 1 бит/сек
ElementCount : 66
Размер потока : 2,33 Кбайт (0%)
Заголовок : Forced
Язык : Ukrainian
Default : Нет
Forced : Нет

Текст #4
Идентификатор : 8
Формат : UTF-8
Идентификатор кодека : S_TEXT/UTF8
Идентификатор кодека/Информация : UTF-8 Plain Text
Продолжительность : 2 ч. 44 м.
Битрейт : 60 бит/сек
ElementCount : 2828
Размер потока : 72,8 Кбайт (0%)
Заголовок : SDH
Язык : English
Default : Нет
Forced : Нет

Меню
00:00:00.000 : en:Chapter 01
00:09:10.341 : en:Chapter 02
00:19:06.354 : en:Chapter 03
00:27:00.744 : en:Chapter 04
00:37:51.227 : en:Chapter 05
00:46:19.986 : en:Chapter 06
00:55:46.802 : en:Chapter 07
01:05:36.474 : en:Chapter 08
01:17:19.134 : en:Chapter 09
01:29:21.565 : en:Chapter 10
01:41:02.974 : en:Chapter 11
01:49:11.336 : en:Chapter 12
01:59:33.833 : en:Chapter 13
02:05:31.774 : en:Chapter 14
02:14:25.933 : en:Chapter 15
02:22:43.889 : en:Chapter 16
02:32:57.168 : en:Chapter 17
02:42:15.643 : en:Chapter 18
02:44:52.508 : en:Chapter 19
Cкриншот1 Оно 2 / It Chapter Two (2019) BDRip 1080p [HEVC] 10 bit от Mr. Fox
Загружается...
Cкриншот2 Оно 2 / It Chapter Two (2019) BDRip 1080p [HEVC] 10 bit от Mr. Fox
Загружается...
Cкриншот3 Оно 2 / It Chapter Two (2019) BDRip 1080p [HEVC] 10 bit от Mr. Fox
Загружается...
Cкриншот4 Оно 2 / It Chapter Two (2019) BDRip 1080p [HEVC] 10 bit от Mr. Fox
Загружается...
Сэмпл Торрент🧲 Магнет

Кнопки "Позвать в чате" и "Спасибо" доступны только зарегистрированным/авторизованным пользователям!

Раздача обновлена!
Русский дубляж заменен на лицензионный.

Файлы: 1
  • It Chapter Two (2019) BDRip 1080p [HEVC] (1).mkv   8.22 ГБ
Поблагодарили: 10
375509, and50, diesel0000, ko1ob, melnik-10, NoMaD, sedoi09, silver, unnamed, z_artem
28.12.2019  10:55:09 Admin
0 146 0 0 8.22 ГБ

Добавление нового комментария

Добавление комментариев доступно только зарегистрированным/авторизованным пользователям.