Регистрация / Смена пароля

💬 Мини-чат

moonson: Alex302, ну, сообственно туда всем нашим врагам и дорога. Жалко только враг Жан-Поля застрял на 16 % и ни туда, и ни сюда 😄
Alex302: moonson, труп вашего врага растащило вороньё)
  • Acerbic
  • alexyak
  • cbyc
  • garant3v
  • Schumer
  • Vitoss6
Отправка сообщений доступно только зарегистрированным/авторизованным пользователям.
Онлайн (за 10 мин.): 6

Такси 5 / Taxi 5 (2018) BDRip 1080p [HEVC] 10 bit от HANNIBAL

HEVC
10 bit
Обложка Такси 5 / Taxi 5 (2018) BDRip 1080p [HEVC] 10 bit от HANNIBAL Год: 2018
Страна: Франция
Студия: EuropaCorp, T5 Production, ARP Sélection
Жанр: Боевик, Комедия, Криминал, Приключения
Продолжительность: 01:41:53

Режиссер: Франк Гастамбид
В ролях: Франк Гастамбид, Малик Бенталха, Бернар Фарси, Сальваторе Эспозито, Эдуард Монтут, Сабрина Уазани, Сэнд Ван Рой, Ануар Тубали, Месье Пуп, Сисси Дюпарк

Описание: Экс-комиссар Жибер, ставший самым непутевым в истории города мэром Марселя, поручает переведенному из столицы новобранцу Сильвану Маро разобраться с неуловимой «бандой итальянцев» на Ferrari. Чтобы остановить их, Маро, суперкопу и суперводителю, приходится объединиться с племянником Даниэля. Парню досталось знаменитое белое такси дяди, но не его талант.

КиноПоиск
4.588 52407
IMDb
4.7
7595


Видео: 1920x804, 8675 Kbps
Аудио: AC3, 6 ch, 384 Kbps -
Русский, Дублированный (iTunes)
Субтитры: Отсутствуют

Медиаинфо
General
Unique ID : 236533918486184581882096864067748292205 (0xB1F2C690D6FA143662520D63DD4AE66D)
Complete name : H:\[HEVC]\Taxi\Taxi 5 (2018) BDRip-HEVC 1080p 10bit.mkv
Format : Matroska
Format version : Version 4
File size : 6.58 GiB
Duration : 1 h 41 min
Overall bit rate : 9 243 kb/s
Movie name : Такси 5
Description : Экс-комиссар Жибер, ставший самым непутевым в истории города мэром Марселя, поручает переведенному из столицы новобранцу Сильвану Маро разобраться с неуловимой «бандой итальянцев» на Ferrari. Чтобы остановить их, Маро, суперкопу и суперводителю, приходится объединиться с племянником Даниэля. Парню досталось знаменитое белое такси дяди, но не его талант.
Writing application : XviD4PSP 7.0.495 PRO
Writing library : Lavf57.71.100
ErrorDetectionType : Per level 1
Attachments : poster.jpg
DATE : 2018-05-14
ENCODING_INFO : MATROSKA,WEBM > MKV Пользовательский / H264 > X265 CRF 18.5 Medium / AC3 > AC3 CBR 384kbps
GENRE : Боевики и приключения
HD_VIDEO : 1
ITUNEXTC : ru-movie|18+|400|
Language : und
MEDIA_TYPE : 9
SYNOPSIS : Экс-комиссар Жибер, ставший самым непутевым в истории города мэром Марселя, поручает переведенному из столицы новобранцу Сильвану Маро разобраться с неуловимой «бандой итальянцев» на Ferrari. Чтобы остановить их, Маро, суперкопу и суперводителю, приходится объединиться с племянником Даниэля. Парню досталось знаменитое белое такси дяди, но не его талант.

Video
ID : 1
Format : HEVC
Format/Info : High Efficiency Video Coding
Format profile : Main 10@L4.1@High
Codec ID : V_MPEGH/ISO/HEVC
Duration : 1 h 41 min
Bit rate : 8 675 kb/s
Width : 1 920 pixels
Height : 804 pixels
Display aspect ratio : 2.40:1
Frame rate mode : Constant
Frame rate : 24.000 FPS
Color space : YUV
Chroma subsampling : 4:2:0
Bit depth : 10 bits
Bits/(Pixel*Frame) : 0.234
Stream size : 6.17 GiB (94%)
Writing library : x265 3.1+7-147fb92c5ed5:[Windows][clang 8.0.0][64 bit] 10bit
Encoding settings : cpuid=1111039 / frame-threads=13 / wpp / no-pmode / no-pme / no-psnr / no-ssim / log-level=3 / input-csp=1 / input-res=1920x804 / interlace=0 / total-frames=0 / level-idc=41 / high-tier=1 / uhd-bd=0 / ref=5 / allow-non-conformance / no-repeat-headers / annexb / no-aud / no-hrd / info / hash=0 / no-temporal-layers / open-gop / min-keyint=23 / keyint=240 / gop-lookahead=0 / bframes=8 / b-adapt=2 / b-pyramid / bframe-bias=0 / rc-lookahead=60 / lookahead-slices=4 / scenecut=60 / radl=0 / no-splice / no-intra-refresh / ctu=64 / min-cu-size=8 / rect / amp / max-tu-size=32 / tu-inter-depth=4 / tu-intra-depth=4 / limit-tu=4 / rdoq-level=2 / dynamic-rd=0.00 / no-ssim-rd / signhide / no-tskip / nr-intra=0 / nr-inter=0 / no-constrained-intra / no-strong-intra-smoothing / max-merge=5 / limit-refs=1 / limit-modes / me=3 / subme=7 / merange=57 / temporal-mvp / no-hme / weightp / weightb / no-analyze-src-pics / deblock=-3:-3 / no-sao / no-sao-non-deblock / rd=6 / no-early-skip / no-rskip / no-fast-intra / no-tskip-fast / no-cu-lossless / b-intra / no-splitrd-skip / rdpenalty=0 / psy-rd=2.00 / psy-rdoq=1.00 / no-rd-refine / no-lossless / cbqpoffs=0 / crqpoffs=0 / rc=crf / crf=18.5 / qcomp=0.60 / qpstep=4 / stats-write=0 / stats-read=0 / vbv-maxrate=50000 / vbv-bufsize=50000 / vbv-init=0.9 / crf-max=30.0 / crf-min=0.0 / ipratio=1.40 / pbratio=1.30 / aq-mode=2 / aq-strength=1.00 / no-cutree / zone-count=0 / no-strict-cbr / qg-size=32 / no-rc-grain / qpmax=69 / qpmin=0 / no-const-vbv / sar=1 / overscan=0 / videoformat=5 / range=0 / colorprim=1 / transfer=1 / colormatrix=1 / chromaloc=0 / display-window=0cll=0,0 / min-luma=0 / max-luma=1023 / log2-max-poc-lsb=8 / vui-timing-info / vui-hrd-info / slices=1 / no-opt-qp-pps / no-opt-ref-list-length-pps / no-multi-pass-opt-rps / scenecut-bias=0.05 / no-opt-cu-delta-qp / no-aq-motion / no-hdr / no-hdr-opt / no-dhdr10-opt / no-idr-recovery-sei / analysis-reuse-level=5 / scale-factor=0 / refine-intra=0 / refine-inter=0 / refine-mv=0 / refine-ctu-distortion=0 / no-limit-sao / ctu-info=0 / no-lowpass-dct / refine-analysis-type=-406516258 / copy-pic=1 / max-ausize-factor=1.0 / no-dynamic-refine / no-single-sei / no-hevc-aq / no-svt / no-field / qp-adaptation-range=1.00
Language : French
Default : Yes
Forced : No
Color range : Limited
Color primaries : BT.709
Transfer characteristics : BT.709
Matrix coefficients : BT.709

Audio
ID : 2
Format : AC-3
Format/Info : Audio Coding 3
Commercial name : Dolby Digital
Codec ID : A_AC3
Duration : 1 h 41 min
Bit rate mode : Constant
Bit rate : 384 kb/s
Channel(s) : 6 channels
Channel layout : L R C LFE Ls Rs
Sampling rate : 48.0 kHz
Frame rate : 31.250 FPS (1536 SPF)
Bit depth : 32 bits
Compression mode : Lossy
Stream size : 280 MiB (4%)
Title : iTunes
Language : Russian
Service kind : Complete Main
Default : Yes
Forced : Yes

Menu
00:00:00.000 : :00:00:00.000
00:09:24.167 : :00:09:24.167
00:17:19.416 : :00:17:19.417
00:27:35.000 : :00:27:35.000
00:34:09.750 : :00:34:09.750
00:41:46.833 : :00:41:46.833
00:50:04.125 : :00:50:04.125
00:58:29.625 : :00:58:29.625
01:06:05.708 : :01:06:05.708
01:14:53.167 : :01:14:53.167
01:23:59.333 : :01:23:59.333
01:32:28.750 : :01:32:28.750
Cкриншот1 Такси 5 / Taxi 5 (2018) BDRip 1080p [HEVC] 10 bit от HANNIBAL
Загружается...
Cкриншот2 Такси 5 / Taxi 5 (2018) BDRip 1080p [HEVC] 10 bit от HANNIBAL
Загружается...
Cкриншот3 Такси 5 / Taxi 5 (2018) BDRip 1080p [HEVC] 10 bit от HANNIBAL
Загружается...
Cкриншот4 Такси 5 / Taxi 5 (2018) BDRip 1080p [HEVC] 10 bit от HANNIBAL
Загружается...
Сэмпл Торрент🧲 Магнет

Кнопки "Позвать в чате" и "Спасибо" доступны только зарегистрированным/авторизованным пользователям!

Файлы: 1
  • Taxi 5 (2018) BDRip-HEVC 1080p 10bit.mkv   6.58 ГБ
Поблагодарили: 5
Chance, D16T, Guga, ivs5, NoMaD
Admin
075106.58 ГБ

Добавление нового комментария

Добавление комментариев доступно только зарегистрированным/авторизованным пользователям.