Регистрация / Смена пароля

💬 Мини-чат

moonson: Alex302, ну, сообственно туда всем нашим врагам и дорога. Жалко только враг Жан-Поля застрял на 16 % и ни туда, и ни сюда 😄
Alex302: moonson, труп вашего врага растащило вороньё)
  • Alchemist
  • kuzmichc
Отправка сообщений доступно только зарегистрированным/авторизованным пользователям.
Онлайн (за 10 мин.): 2

Обитаемый остров (2008) BDRip 1080p [HEVC] 10 bit от M@kSIMus

HEVC
10 bit
Обложка Обитаемый остров (2008) BDRip 1080p [HEVC] 10 bit от M@kSIMus Год: 2008
Страна: Россия
Студия: Арт Пикчерс Студия, Нон-стоп Продакшн, Канал СТС
Жанр: Фантастика, Боевик
Продолжительность: 02:00:57

Режиссер: Фёдор Бондарчук
В ролях: Василий Степанов, Пётр Фёдоров, Юлия Снигирь, Алексей Серебряков, Борис Некрасов, Фёдор Бондарчук, Гоша Куценко, Сергей Гармаш, Анна Михалкова, Андрей Мерзликин

Описание: 2157 год — эпоха расцвета человеческой цивилизации. Пилоты Группы Свободного Поиска бороздят просторы Вселенной. Главный герой, Максим Камеррер, совершает вынужденную посадку на планете Саракш, но уже через несколько минут его корабль будет уничтожен, а герой окажется узником неизвестной планеты. Вскоре Максим сталкивается с человеческой цивилизацией. Уровень ее развития сопоставим с давно минувшим на Западе ХХ веком. После многолетней ядерной войны на планете царит экологический кризис, в обществе полно социальных проблем, а установившийся мир очень шаток… Максиму предстоит пережить много событий и пройти много испытаний прежде, чем он сможет спасти эту планету…

КиноПоиск
4.307 67025
IMDb
5.1
5171


Видео: 1920x818, 14.4 Mbps
Аудио: AC3, 6 ch, 640 Kbps -
Русский, Оригинал
Субтитры: Отсутствуют

Медиаинфо
x265 info: frame I: 1935, Avg QP:17.17 kb/s: 34449.64
x265 info: frame P: 32949, Avg QP:18.57 kb/s: 23168.15
x265 info: frame B: 139115, Avg QP:20.89 kb/s: 12098.23
x265 info: Weighted P-Frames: Y:9.4% UV:7.8%
x265 info: consecutive B-frames: 12.6% 5.7% 6.8% 23.4% 8.9% 21.6% 6.5% 5.5% 2.9% 2.5% 1.2% 1.1% 0.5% 0.4% 0.2% 0.2% 0.1%
x265 info: encoded 173999 frames in 136268.94s (1.28 fps), 14443.03 kb/s, Avg QP:20.41

Формат : Matroska
Версия формата : Version 4
Размер файла : 12,7 Гбайт
Продолжительность : 2 ч. 0 м.
Общий поток : 15,1 Мбит/сек
Название фильма : Обитаемый остров (2008) Encoded_by_M@kSIMus
Дата кодирования : UTC 2019-12-01 13:17:53
Программа кодирования : mkvmerge v40.0.0 ('Old Town Road + Pony') 64-bit
Библиотека кодирования : libebml v1.3.9 + libmatroska v1.5.2
Обложка : Yes
Attachments : cover1.jpg

Видео
Идентификатор : 1
Формат : HEVC
Формат/Информация : High Efficiency Video Coding
Профиль формата : Main 10@L4.1@High
Идентификатор кодека : V_MPEGH/ISO/HEVC
Продолжительность : 2 ч. 0 м.
Битрейт : 14,4 Мбит/сек
Ширина : 1920 пикселей
Высота : 818 пикселей
Соотношение сторон : 2,35:1
Режим частоты кадров : Постоянный
Частота кадров : 23,976 (24000/1001) кадра/сек
Цветовое пространство : YUV
Субдискретизация насыщенности : 4:2:0
Битовая глубина : 10 бит
Бит/(Пиксели*Кадры) : 0.384
Размер потока : 12,2 Гбайт (96%)
Библиотека кодирования : x265 3.2+5-354901970679:[Windows][clang 8.0.1][64 bit] 10bit
Настройки программы : cpuid=1049583 / frame-threads=5 / numa-pools=4 / wpp / no-pmode / no-pme / no-psnr / no-ssim / log-level=3 / input-csp=1 / input-res=1920x818 / interlace=0 / total-frames=0 / level-idc=41 / high-tier=1 / uhd-bd=0 / ref=5 / allow-non-conformance / no-repeat-headers / annexb / no-aud / no-hrd / info / hash=0 / no-temporal-layers / open-gop / min-keyint=24 / keyint=240 / gop-lookahead=0 / bframes=16 / b-adapt=2 / b-pyramid / bframe-bias=0 / rc-lookahead=40 / lookahead-slices=5 / scenecut=40 / radl=0 / no-splice / no-intra-refresh / ctu=32 / min-cu-size=8 / no-rect / no-amp / max-tu-size=32 / tu-inter-depth=4 / tu-intra-depth=4 / limit-tu=1 / rdoq-level=1 / dynamic-rd=0.00 / no-ssim-rd / signhide / no-tskip / nr-intra=0 / nr-inter=0 / no-constrained-intra / no-strong-intra-smoothing / max-merge=5 / limit-refs=1 / no-limit-modes / me=3 / subme=7 / merange=57 / temporal-mvp / no-frame-dup / no-hme / weightp / no-weightb / no-analyze-src-pics / deblock=-3:-3 / no-sao / no-sao-non-deblock / rd=3 / selective-sao=0 / early-skip / no-rskip / no-fast-intra / no-tskip-fast / no-cu-lossless / b-intra / no-splitrd-skip / rdpenalty=0 / psy-rd=2.00 / psy-rdoq=1.00 / no-rd-refine / no-lossless / cbqpoffs=0 / crqpoffs=0 / rc=crf / crf=20.0 / qcomp=0.60 / qpstep=4 / stats-write=0 / stats-read=0 / vbv-maxrate=50000 / vbv-bufsize=50000 / vbv-init=0.9 / crf-max=0.0 / crf-min=0.0 / ipratio=1.40 / pbratio=1.30 / aq-mode=3 / aq-strength=1.00 / no-cutree / zone-count=0 / no-strict-cbr / qg-size=32 / no-rc-grain / qpmax=69 / qpmin=0 / no-const-vbv / sar=1 / overscan=0 / videoformat=5 / range=0 / colorprim=1 / transfer=1 / colormatrix=1 / chromaloc=0 / display-window=0 / cll=0,0 / min-luma=0 / max-luma=1023 / log2-max-poc-lsb=8 / vui-timing-info / vui-hrd-info / slices=1 / no-opt-qp-pps / no-opt-ref-list-length-pps / no-multi-pass-opt-rps / scenecut-bias=0.05 / no-opt-cu-delta-qp / no-aq-motion / no-hdr / no-hdr-opt / no-dhdr10-opt / no-idr-recovery-sei / analysis-reuse-level=5 / scale-factor=0 / refine-intra=0 / refine-inter=0 / refine-mv=1 / refine-ctu-distortion=0 / no-limit-sao / ctu-info=0 / no-lowpass-dct / refine-analysis-type=0 / copy-pic=1 / max-ausize-factor=1.0 / no-dynamic-refine / no-single-sei / no-hevc-aq / no-svt / no-field / qp-adaptation-range=1.00
Язык : Russian
Default : Да
Forced : Нет
Цветовой диапазон : Limited
Основные цвета : BT.709
Характеристики трансфера : BT.709
Коэффициенты матрицы : BT.709

Аудио
Идентификатор : 2
Формат : AC-3
Формат/Информация : Audio Coding 3
Коммерческое название : Dolby Digital
Идентификатор кодека : A_AC3
Продолжительность : 2 ч. 0 м.
Вид битрейта : Постоянный
Битрейт : 640 Кбит/сек
Каналы : 6 каналов
ChannelLayout : L R C LFE Ls Rs
Частота : 48,0 КГц
Частота кадров : 31,250 кадров/сек (1536 SPF)
Битовая глубина : 16 бит
Метод сжатия : С потерями
Размер потока : 554 Мбайт (4%)
Язык : Russian
Default : Да
Forced : Нет

Меню
00:00:00.000 : :Глава 1
00:05:00.000 : :Глава 2
00:10:00.000 : :Глава 3
00:15:00.000 : :Глава 4
00:20:00.000 : :Глава 5
00:25:00.000 : :Глава 6
00:30:00.000 : :Глава 7
00:35:00.000 : :Глава 8
00:40:00.000 : :Глава 9
00:45:00.000 : :Глава 10
00:50:00.000 : :Глава 11
00:55:00.000 : :Глава 12
01:00:00.000 : :Глава 13
01:05:00.000 : :Глава 14
01:10:00.000 : :Глава 15
01:15:00.000 : :Глава 16
01:20:00.000 : :Глава 17
01:25:00.000 : :Глава 18
01:30:00.000 : :Глава 19
01:35:00.000 : :Глава 20
01:40:00.000 : :Глава 21
01:45:00.000 : :Глава 22
01:50:00.000 : :Глава 23
01:55:00.000 : :Глава 24
02:00:00.000 : :Глава 25
Cкриншот1 Обитаемый остров (2008) BDRip 1080p [HEVC] 10 bit от M@kSIMus
Загружается...
Cкриншот2 Обитаемый остров (2008) BDRip 1080p [HEVC] 10 bit от M@kSIMus
Загружается...
Cкриншот3 Обитаемый остров (2008) BDRip 1080p [HEVC] 10 bit от M@kSIMus
Загружается...
Cкриншот4 Обитаемый остров (2008) BDRip 1080p [HEVC] 10 bit от M@kSIMus
Загружается...
Сэмпл Торрент🧲 Магнет

Кнопки "Позвать в чате" и "Спасибо" доступны только зарегистрированным/авторизованным пользователям!

Файлы: 1
  • Обитаемый остров (2008) BDRip 1080p [HEVC] 10 bit.mkv   12.75 ГБ
Поблагодарили: 6
Alexeyall, Andry26, bitum, Chance, pr3ss, unnamed
Admin
08410012.75 ГБ

Добавление нового комментария

Добавление комментариев доступно только зарегистрированным/авторизованным пользователям.