Регистрация / Смена пароля

💬 Мини-чат

moonson: Alex302, ну, сообственно туда всем нашим врагам и дорога. Жалко только враг Жан-Поля застрял на 16 % и ни туда, и ни сюда 😄
Alex302: moonson, труп вашего врага растащило вороньё)
  • kuzmichc
Отправка сообщений доступно только зарегистрированным/авторизованным пользователям.
Онлайн (за 10 мин.): 1

Окулус / Oculus (2013) BDRip 1080p [HEVC] 10 bit от M@kSIMus

HEVC
10 bit
Обложка Окулус / Oculus (2013) BDRip 1080p [HEVC] 10 bit от M@kSIMus Год: 2013
Страна: США
Студия: Intrepid Pictures, Blumhouse Productions, WWE Studios
Жанр: Ужасы, Триллер
Продолжительность: 01:44:03

Режиссер: Майк Флэнеган
В ролях: Карен Гиллан, Брентон Туэйтс, Кэти Сакхофф, Рори Кокрейн, Анналиса Бассо, Гаррет Райан, Джеймс Лэфферти, Мигель Сандовал, Кейт Сигел, Скотт Грэхэм

Описание: Смерть родителей сильно повлияла на судьбу двух осиротевших детей. По прошествии времени, в двадцатилетнем возрасте, сестра все еще продолжает так считать и хочет доказать брату, что привидение, вышедшее из зеркала, стало причиной гибели близких людей и всех случившихся последующих бед…

КиноПоиск
6.42 53241
IMDb
6.5
113013


Видео: 1920x800, 6876 Kbps
Аудио1: AC3, 6 ch, 448 Kbps -
Русский, Дублированный (Лицензия)
Аудио2: AC3, 6 ch, 448 Kbps -
Английский, Оригинал
Субтитры: Русские, английские

Как за пару секунд удалить ненужные аудиодорожки и субтитры (Внимание! После удаления вы не сможете поддержать раздачу)

Медиаинфо
x265 info: frame I: 1444, Avg QP:15.28 kb/s: 22532.01
x265 info: frame P: 23118, Avg QP:16.44 kb/s: 14330.28
x265 info: frame B: 125125, Avg QP:19.10 kb/s: 5317.42
x265 info: Weighted P-Frames: Y:6.2% UV:5.1%
x265 info: consecutive B-frames: 8.4% 3.0% 7.2% 18.0% 5.6% 12.4% 3.8% 29.6% 1.9% 1.9% 0.5% 7.2% 0.6%
x265 info: encoded 149687 frames in 63621.57s (2.35 fps), 6875.46 kb/s, Avg QP:18.66

Формат : Matroska
Версия формата : Version 4
Размер файла : 5,65 Гбайт
Продолжительность : 1 ч. 44 м.
Общий поток : 7775 Кбит/сек
Название фильма : Oculus (2013) Encoded_by_M@kSIMus
Дата кодирования : UTC 2019-11-29 04:09:05
Программа кодирования : mkvmerge v40.0.0 ('Old Town Road + Pony') 64-bit
Библиотека кодирования : libebml v1.3.9 + libmatroska v1.5.2
Обложка : Yes
Attachments : cover.jpg

Видео
Идентификатор : 1
Формат : HEVC
Формат/Информация : High Efficiency Video Coding
Профиль формата : Main 10@L4.1@High
Идентификатор кодека : V_MPEGH/ISO/HEVC
Продолжительность : 1 ч. 44 м.
Битрейт : 6876 Кбит/сек
Ширина : 1920 пикселей
Высота : 800 пикселей
Соотношение сторон : 2,40:1
Режим частоты кадров : Постоянный
Частота кадров : 23,976 (24000/1001) кадра/сек
Цветовое пространство : YUV
Субдискретизация насыщенности : 4:2:0
Битовая глубина : 10 бит
Бит/(Пиксели*Кадры) : 0.187
Размер потока : 5,00 Гбайт (88%)
Библиотека кодирования : x265 3.2+5-354901970679:[Windows][clang 8.0.1][64 bit] 10bit
Настройки программы : cpuid=1049583 / frame-threads=5 / numa-pools=4 / wpp / no-pmode / no-pme / no-psnr / no-ssim / log-level=3 / input-csp=1 / input-res=1920x800 / interlace=0 / total-frames=0 / level-idc=41 / high-tier=1 / uhd-bd=0 / ref=4 / allow-non-conformance / no-repeat-headers / annexb / no-aud / no-hrd / info / hash=0 / no-temporal-layers / open-gop / min-keyint=24 / keyint=240 / gop-lookahead=0 / bframes=12 / b-adapt=2 / b-pyramid / bframe-bias=0 / rc-lookahead=40 / lookahead-slices=5 / scenecut=40 / radl=0 / no-splice / no-intra-refresh / ctu=32 / min-cu-size=8 / no-rect / no-amp / max-tu-size=32 / tu-inter-depth=4 / tu-intra-depth=4 / limit-tu=1 / rdoq-level=1 / dynamic-rd=0.00 / no-ssim-rd / signhide / no-tskip / nr-intra=0 / nr-inter=0 / no-constrained-intra / no-strong-intra-smoothing / max-merge=5 / limit-refs=1 / no-limit-modes / me=3 / subme=7 / merange=57 / temporal-mvp / no-frame-dup / no-hme / weightp / no-weightb / no-analyze-src-pics / deblock=-3:-3 / no-sao / no-sao-non-deblock / rd=3 / selective-sao=0 / early-skip / no-rskip / no-fast-intra / no-tskip-fast / no-cu-lossless / b-intra / no-splitrd-skip / rdpenalty=0 / psy-rd=2.00 / psy-rdoq=1.00 / no-rd-refine / no-lossless / cbqpoffs=0 / crqpoffs=0 / rc=crf / crf=20.0 / qcomp=0.60 / qpstep=4 / stats-write=0 / stats-read=0 / vbv-maxrate=50000 / vbv-bufsize=50000 / vbv-init=0.9 / crf-max=0.0 / crf-min=0.0 / ipratio=1.40 / pbratio=1.30 / aq-mode=3 / aq-strength=1.00 / no-cutree / zone-count=0 / no-strict-cbr / qg-size=32 / no-rc-grain / qpmax=69 / qpmin=0 / no-const-vbv / sar=1 / overscan=0 / videoformat=5 / range=0 / colorprim=2 / transfer=2 / colormatrix=2 / chromaloc=0 / display-window=0 / cll=0,0 / min-luma=0 / max-luma=1023 / log2-max-poc-lsb=8 / vui-timing-info / vui-hrd-info / slices=1 / no-opt-qp-pps / no-opt-ref-list-length-pps / no-multi-pass-opt-rps / scenecut-bias=0.05 / no-opt-cu-delta-qp / no-aq-motion / no-hdr / no-hdr-opt / no-dhdr10-opt / no-idr-recovery-sei / analysis-reuse-level=5 / scale-factor=0 / refine-intra=0 / refine-inter=0 / refine-mv=1 / refine-ctu-distortion=0 / no-limit-sao / ctu-info=0 / no-lowpass-dct / refine-analysis-type=0 / copy-pic=1 / max-ausize-factor=1.0 / no-dynamic-refine / no-single-sei / no-hevc-aq / no-svt / no-field / qp-adaptation-range=1.00
Язык : English
Default : Да
Forced : Нет
Цветовой диапазон : Limited

Аудио #1
Идентификатор : 2
Формат : AC-3
Формат/Информация : Audio Coding 3
Коммерческое название : Dolby Digital
Идентификатор кодека : A_AC3
Продолжительность : 1 ч. 44 м.
Вид битрейта : Постоянный
Битрейт : 448 Кбит/сек
Каналы : 6 каналов
ChannelLayout : L R C LFE Ls Rs
Частота : 48,0 КГц
Частота кадров : 31,250 кадров/сек (1536 SPF)
Битовая глубина : 16 бит
Метод сжатия : С потерями
Размер потока : 333 Мбайт (6%)
Заголовок : Дубляж
Язык : Russian
Default : Да
Forced : Нет

Аудио #2
Идентификатор : 3
Формат : AC-3
Формат/Информация : Audio Coding 3
Коммерческое название : Dolby Digital
Идентификатор кодека : A_AC3
Продолжительность : 1 ч. 44 м.
Вид битрейта : Постоянный
Битрейт : 448 Кбит/сек
Каналы : 6 каналов
ChannelLayout : L R C LFE Ls Rs
Частота : 48,0 КГц
Частота кадров : 31,250 кадров/сек (1536 SPF)
Битовая глубина : 16 бит
Метод сжатия : С потерями
Размер потока : 333 Мбайт (6%)
Заголовок : Оригинал
Язык : English
Default : Нет
Forced : Нет

Текст #1
Идентификатор : 4
Формат : UTF-8
Идентификатор кодека : S_TEXT/UTF8
Идентификатор кодека/Информация : UTF-8 Plain Text
Продолжительность : 1 ч. 36 м.
Битрейт : 66 бит/сек
ElementCount : 907
Размер потока : 47,3 Кбайт (0%)
Заголовок : Full
Язык : Russian
Default : Нет
Forced : Нет

Текст #2
Идентификатор : 5
Формат : UTF-8
Идентификатор кодека : S_TEXT/UTF8
Идентификатор кодека/Информация : UTF-8 Plain Text
Продолжительность : 1 ч. 41 м.
Битрейт : 42 бит/сек
ElementCount : 941
Размер потока : 31,5 Кбайт (0%)
Заголовок : Full
Язык : English
Default : Нет
Forced : Нет

Меню
00:00:00.000 : :Глава 1
00:03:10.690 : :Глава 2
00:07:26.571 : :Глава 3
00:12:32.751 : :Глава 4
00:14:41.880 : :Глава 5
00:19:54.318 : :Глава 6
00:24:35.056 : :Глава 7
00:30:56.396 : :Глава 8
00:34:01.414 : :Глава 9
00:39:20.149 : :Глава 10
00:42:50.109 : :Глава 11
00:46:09.933 : :Глава 12
00:51:21.411 : :Глава 13
00:54:53.581 : :Глава 14
00:57:14.389 : :Глава 15
01:01:54.252 : :Глава 16
01:08:05.539 : :Глава 17
01:11:46.593 : :Глава 18
01:14:19.496 : :Глава 19
01:19:14.750 : :Глава 20
01:23:16.700 : :Глава 21
01:28:45.236 : :Глава 22
01:34:24.617 : :Глава 23
01:37:17.997 : :Глава 24
01:44:03.028 : :Глава 25
Cкриншот1 Окулус / Oculus (2013) BDRip 1080p [HEVC] 10 bit от M@kSIMus
Загружается...
Cкриншот2 Окулус / Oculus (2013) BDRip 1080p [HEVC] 10 bit от M@kSIMus
Загружается...
Cкриншот3 Окулус / Oculus (2013) BDRip 1080p [HEVC] 10 bit от M@kSIMus
Загружается...
Cкриншот4 Окулус / Oculus (2013) BDRip 1080p [HEVC] 10 bit от M@kSIMus
Загружается...
Сэмпл Торрент🧲 Магнет

Кнопки "Позвать в чате" и "Спасибо" доступны только зарегистрированным/авторизованным пользователям!

Файлы: 1
  • Oculus (2013) BDRip 1080p [HEVC] 10 bit.mkv   5.65 ГБ
Admin
01000105.65 ГБ

Добавление нового комментария

Добавление комментариев доступно только зарегистрированным/авторизованным пользователям.