Регистрация / Смена пароля

💬 Мини-чат

moonson: Alex302, ну, сообственно туда всем нашим врагам и дорога. Жалко только враг Жан-Поля застрял на 16 % и ни туда, и ни сюда 😄
Alex302: moonson, труп вашего врага растащило вороньё)
  • Spartanec1308
  • 5a4oK
  • Crept
  • korova223
  • kuzmichc
  • svibog123
  • TheRuselX
Отправка сообщений доступно только зарегистрированным/авторизованным пользователям.
Онлайн (за 10 мин.): 7

Я иду искать / Ready Or Not (2019) [iTunes] BDRip 1080p [HEVC] 10 bit от NoMaD

HEVC
10 bit
Обложка Я иду искать / Ready Or Not (2019) [iTunes] BDRip 1080p [HEVC] 10 bit от NoMaD Год: 2019
Страна: Канада, США
Студия: Mythology Entertainment, Vinson Films
Жанр: Триллер, Комедия, Ужасы
Продолжительность: 01:35:22

Режиссер: Мэттью Беттинелли, Тайлер Джиллетт
В ролях: Самара Уивинг, Адам Броди, Марк О`Брайэн, Генри Черни, Энди МакДауэлл, Мелани Скрофано, Кристиан Бруун, Никки Гуаданьи, Элиз Левеске, Джон Ралстон, Лиам Макдональд, Этан Таварес, Хеннеки Талбот, Даниэла Барбоза, Чейз Черчилль, Эндрю Энтони, Элана Дункельман

Описание: Юная невеста - теперь часть семьи своего новоиспеченного мужа, богатого, но эксцентричного рода, чтящего вековые традиции. Но кто бы мог подумать, что знакомство с родителями супруга превратится в смертельную игру, в которой все борются не на жизнь, а на смерть.

КиноПоиск
6.715 50436
IMDb
6.8
81535


Видео: 1920x804, ~6471 kb/s
Аудио1: AC3, 6 ch, 384 Kbps -
Русский, Дублированный (iTunes)
Аудио2: AC3, 2 ch, 192 Kbps -
Украинский, Дублированный (iTunes)
Аудио3: AC3, 6 ch, 448 Kbps -
Английский, Original
Субтитры: Русские (форсированные,полные), украинские (полные), английские (полные)

Как за пару секунд удалить ненужные аудиодорожки и субтитры (Внимание! После удаления вы не сможете поддержать раздачу)

Медиаинфо
x265 info: frame I: 1373, Avg QP:15.59 kb/s: 19250.91
x265 info: frame P: 23607, Avg QP:17.21 kb/s: 12243.85
x265 info: frame B: 112227, Avg QP:19.26 kb/s: 5098.45
x265 info: Weighted P-Frames: Y:10.9% UV:9.7%
x265 info: Weighted B-Frames: Y:13.1% UV:10.3%
x265 info: consecutive B-frames: 7.4% 4.2% 4.8% 21.6% 9.3% 20.5% 5.4% 20.2% 2.9% 2.2% 1.4%
x265 info: encoded 137207 frames in 155305.00s (0.88 fps), 6469.46 kb/s, Avg QP:18.87

General
Unique ID : 49519297388497187828724753560519757915 (0x254111DC3884A5C18ACEF1E073CAD05B)
Complete name : D:Download Я иду искать (2019).mkv
Format : Matroska
Format version : Version 4
File size : 5.00 GiB
Duration : 1 h 35 min
Overall bit rate : 7 498 kb/s
Movie name : Я иду искать / Ready Or Not (2019)
Encoded date : UTC 2019-12-01 15:25:50
Writing application : mkvmerge v38.0.0 ('The Silent Type') 64-bit
Writing library : libebml v1.3.9 + libmatroska v1.5.2
Cover : Yes
Attachments : Cover.jpg

Video
ID : 1
Format : HEVC
Format/Info : High Efficiency Video Coding
Format profile : Main 10@L4.1@High
Codec ID : V_MPEGH/ISO/HEVC
Duration : 1 h 35 min
Bit rate : 6 471 kb/s
Width : 1 920 pixels
Height : 804 pixels
Display aspect ratio : 2.40:1
Frame rate mode : Constant
Frame rate : 23.976 (24000/1001) FPS
Color space : YUV
Chroma subsampling : 4:2:0
Bit depth : 10 bits
Bits/(Pixel*Frame) : 0.175
Stream size : 4.31 GiB (86%)
Title : Ready Or Not
Writing library : x265 3.2+5-354901970679:[Windows][clang 8.0.1][64 bit] 10bit
Encoding settings : cpuid=1111039 / frame-threads=9 / numa-pools=8 / wpp / no-pmode / no-pme / no-psnr / no-ssim / log-level=3 / input-csp=1 / input-res=1920x804 / interlace=0 / total-frames=0 / level-idc=41 / high-tier=1 / uhd-bd=0 / ref=5 / allow-non-conformance / no-repeat-headers / annexb / aud / no-hrd / info / hash=0 / no-temporal-layers / open-gop / min-keyint=23 / keyint=240 / gop-lookahead=0 / bframes=10 / b-adapt=2 / b-pyramid / bframe-bias=0 / rc-lookahead=60 / lookahead-slices=4 / scenecut=40 / radl=0 / no-splice / no-intra-refresh / ctu=32 / min-cu-size=8 / rect / amp / max-tu-size=32 / tu-inter-depth=4 / tu-intra-depth=4 / limit-tu=0 / rdoq-level=2 / dynamic-rd=0.00 / no-ssim-rd / signhide / no-tskip / nr-intra=0 / nr-inter=0 / no-constrained-intra / no-strong-intra-smoothing / max-merge=5 / limit-refs=3 / limit-modes / me=3 / subme=7 / merange=57 / temporal-mvp / no-frame-dup / no-hme / weightp / weightb / no-analyze-src-pics / deblock=-3:-3 / no-sao / no-sao-non-deblock / rd=6 / selective-sao=0 / no-early-skip / no-rskip / no-fast-intra / no-tskip-fast / no-cu-lossless / no-b-intra / no-splitrd-skip / rdpenalty=0 / psy-rd=2.00 / psy-rdoq=1.00 / no-rd-refine / no-lossless / cbqpoffs=0 / crqpoffs=0 / rc=abr / bitrate=6469 / qcomp=0.70 / qpstep=4 / stats-write=0 / stats-read=1 / cplxblur=20.0 / qblur=0.5 / vbv-maxrate=50000 / vbv-bufsize=50000 / vbv-init=0.9 / ipratio=1.40 / pbratio=1.30 / aq-mode=2 / aq-strength=1.00 / no-cutree / zone-count=0 / no-strict-cbr / qg-size=32 / no-rc-grain / qpmax=69 / qpmin=0 / no-const-vbv / sar=1 / overscan=0 / videoformat=5 / range=0 / colorprim=2 / transfer=2 / colormatrix=2 / chromaloc=0 / display-window=0 / cll=0,0 / min-luma=0 / max-luma=1023 / log2-max-poc-lsb=8 / vui-timing-info / vui-hrd-info / slices=1 / no-opt-qp-pps / no-opt-ref-list-length-pps / no-multi-pass-opt-rps / scenecut-bias=0.05 / no-opt-cu-delta-qp / no-aq-motion / no-hdr / no-hdr-opt / no-dhdr10-opt / no-idr-recovery-sei / analysis-reuse-level=5 / scale-factor=0 / refine-intra=0 / refine-inter=0 / refine-mv=1 / refine-ctu-distortion=0 / no-limit-sao / ctu-info=0 / no-lowpass-dct / refine-analysis-type=0 / copy-pic=1 / max-ausize-factor=1.0 / no-dynamic-refine / no-single-sei / hevc-aq / no-svt / no-field / qp-adaptation-range=2.00
Language : English
Default : Yes
Forced : No
Color range : Limited

Audio #1
ID : 2
Format : AC-3
Format/Info : Audio Coding 3
Commercial name : Dolby Digital
Codec ID : A_AC3
Duration : 1 h 35 min
Bit rate mode : Constant
Bit rate : 384 kb/s
Channel(s) : 6 channels
Channel layout : L R C LFE Ls Rs
Sampling rate : 48.0 kHz
Frame rate : 31.250 FPS (1536 SPF)
Compression mode : Lossy
Stream size : 262 MiB (5%)
Title : Дубляж (iTunes)
Language : Russian
Service kind : Complete Main
Default : Yes
Forced : No

Audio #2
ID : 3
Format : AC-3
Format/Info : Audio Coding 3
Commercial name : Dolby Digital
Codec ID : A_AC3
Duration : 1 h 35 min
Bit rate mode : Constant
Bit rate : 192 kb/s
Channel(s) : 2 channels
Channel layout : L R
Sampling rate : 48.0 kHz
Frame rate : 31.250 FPS (1536 SPF)
Compression mode : Lossy
Stream size : 131 MiB (3%)
Title : Дубляж (iTunes)
Language : Ukrainian
Service kind : Complete Main
Default : No
Forced : No

Audio #3
ID : 4
Format : AC-3
Format/Info : Audio Coding 3
Commercial name : Dolby Digital
Codec ID : A_AC3
Duration : 1 h 35 min
Bit rate mode : Constant
Bit rate : 448 kb/s
Channel(s) : 6 channels
Channel layout : L R C LFE Ls Rs
Sampling rate : 48.0 kHz
Frame rate : 31.250 FPS (1536 SPF)
Compression mode : Lossy
Stream size : 306 MiB (6%)
Title : Original
Language : English
Service kind : Complete Main
Default : No
Forced : No

Text #1
ID : 5
Format : UTF-8
Codec ID : S_TEXT/UTF8
Codec ID/Info : UTF-8 Plain Text
Duration : 1 h 34 min
Bit rate : 5 b/s
Count of elements : 104
Stream size : 3.58 KiB (0%)
Title : Forced
Language : Russian
Default : Yes
Forced : Yes

Text #2
ID : 6
Format : UTF-8
Codec ID : S_TEXT/UTF8
Codec ID/Info : UTF-8 Plain Text
Duration : 1 h 34 min
Bit rate : 75 b/s
Count of elements : 1142
Stream size : 52.0 KiB (0%)
Title : Full
Language : Russian
Default : No
Forced : No

Text #3
ID : 7
Format : UTF-8
Codec ID : S_TEXT/UTF8
Codec ID/Info : UTF-8 Plain Text
Duration : 1 h 34 min
Bit rate : 66 b/s
Count of elements : 1080
Stream size : 46.0 KiB (0%)
Title : Full
Language : Ukrainian
Default : No
Forced : No

Text #4
ID : 8
Format : UTF-8
Codec ID : S_TEXT/UTF8
Codec ID/Info : UTF-8 Plain Text
Duration : 1 h 33 min
Bit rate : 46 b/s
Count of elements : 1095
Stream size : 32.2 KiB (0%)
Title : Full
Language : English
Default : No
Forced : No

Menu #1
00:00:00.000 : :Chapter 01
00:03:11.817 : :Chapter 02
00:06:49.534 : :Chapter 03
00:09:27.776 : :Chapter 04
00:12:27.038 : :Chapter 05
00:16:24.150 : :Chapter 06
00:21:57.942 : :Chapter 07
00:25:21.061 : :Chapter 08
00:28:00.262 : :Chapter 09
00:31:21.922 : :Chapter 10
00:34:46.459 : :Chapter 11
00:36:08.625 : :Chapter 12
00:38:23.760 : :Chapter 13
00:41:55.930 : :Chapter 14
00:45:40.363 : :Chapter 15
00:48:03.047 : :Chapter 16
00:51:50.441 : :Chapter 17
00:54:05.075 : :Chapter 18
00:57:05.088 : :Chapter 19
00:59:52.714 : :Chapter 20
01:01:37.903 : :Chapter 21
01:04:01.671 : :Chapter 22
01:07:31.422 : :Chapter 23
01:09:25.828 : :Chapter 24
01:11:48.304 : :Chapter 25
01:15:59.722 : :Chapter 26
01:18:34.585 : :Chapter 27
01:21:39.645 : :Chapter 28
01:24:07.292 : :Chapter 29
01:27:48.013 : :Chapter 30
01:29:22.315 : :Chapter 31
01:30:49.152 : :Chapter 32
Cкриншот1 Я иду искать / Ready Or Not (2019) [iTunes] BDRip 1080p [HEVC] 10 bit от NoMaD
Загружается...
Cкриншот2 Я иду искать / Ready Or Not (2019) [iTunes] BDRip 1080p [HEVC] 10 bit от NoMaD
Загружается...
Cкриншот3 Я иду искать / Ready Or Not (2019) [iTunes] BDRip 1080p [HEVC] 10 bit от NoMaD
Загружается...
Cкриншот4 Я иду искать / Ready Or Not (2019) [iTunes] BDRip 1080p [HEVC] 10 bit от NoMaD
Загружается...
Сэмпл Торрент🧲 Магнет

Кнопки "Позвать в чате" и "Спасибо" доступны только зарегистрированным/авторизованным пользователям!

Файлы: 1
  • Я иду искать (2019).mkv   5 ГБ
Поблагодарили: 7
375509, and50, ko1ob, makss333, mat, Nuclear70, Vvulpes
OldGamer
0893005 ГБ

Добавление нового комментария

Добавление комментариев доступно только зарегистрированным/авторизованным пользователям.