Обложка Аксель / A-X-L (2018) BDRip 1080p [HEVC] 10 bit от M@kSIMusОбложка Кролик Питер / Peter Rabbit (2018) BDRip 1080p [HEVC] 10 bit от OldGamerОбложка Моя бывшая подружка / Ami-ami (2018) BDRip 1080p [HEVC] 10 bit от M@kSIMusОбложка Невероятные приключения Факира / The Extraordinary Journey of the Fakir (2018) BDRip 1080p [HEVC] 10 bit от M@kSIMusОбложка Коллекторы / The Debt Collector (2018) BDRip 1080p [HEVC] 10 bit от M@kSIMusОбложка Монстры на каникулах 3: Море зовёт / Hotel Transylvania 3: Summer Vacation (2018) BDRip 1080p [HEVC] 10 bit от M@kSIMusОбложка Солнцестояние / Midsommar (2019) BDRip 1080p [HEVC] 10 bit от M@kSIMusОбложка Красный воробей / Red Sparrow (2018) BDRip 1080p [HEVC] 10 bit от HANNIBALОбложка Люди в черном: Интернэшнл / Men in Black International (2019) BDRip 1080p [HEVC] 10 bit от Mr. FoxОбложка Богемская рапсодия / Bohemian Rhapsody (2018) BDRip 1080p [HEVC] 10 bit от M@kSIMus

Авторизация

Смена пароля

captcha

Регистрация

captcha

🔍 Поиск

Мини-чат

(11:47)joker63: OldGamer, ✋
(12:13)OldGamer: joker63, ✋
(14:34)OldGamer: NoMaD, то есть ты ещё будешь мне говорить, что делать и куда лезть? 🤔
(19:47)medium: NoMaD, напишите кто нибудь краткий курс по кодированию (с ключами), я бы помог с релизами 4к
(19:47)OldGamer: medium, уже давно всё написано, было бы желание понимать написанное да не лениться экспериментировать, тестировать и сравнивать
(22:51)medium: OldGamer, скинь ссылку плс, где все написано, конечьно я изучу
(09:47)NoMaD: medium, обратите внимание на раздел Справка
(09:53)NoMaD: medium, помощь с релизами 4К нам не нужна,так как пока до конца кодирование с 4К не доведено до ума - цветопередача сильно отличается от кодирования с обычного ремукса и не в лучшую сторону
(11:29)Холодец_3: NoMaD, Ты за всех не говори Кабанчик.
(11:31)Admin: NoMaD, может он хочет в HDR, а там было бы подходящее устройство...
(12:32)NoMaD: Холодец_3, тогда напиши ему в личку и спроси,Холодечик) Раз сам не знаешь)
(12:33)NoMaD: Admin, HDR делать тоже не резонно - многим потом придётся объяснять что делать,чтобы нормально просмотреть видеофайл с нормальными цветами
(15:35)OldGamer: NoMaD, не надо говорить за всех, это нехорошая привычка. Если человек хочет заниматься 4К - это можно только приветствовать.
(16:32)NoMaD: OldGamer, а это так же как у тебя,тоже есть не хорошая привычка - говорить что тебе не нужно,когда тебя несколько человек уже просят сериал сделать.
(16:38)NoMaD: OldGamer, тем более когда сам начал хвалиться,что у тебя есть возможность на нескольких компьютерах делать. Было бы у меня хотя бы два,так я сам бы сделал
(17:27)Admin: NoMaD, заплати максику, он тебе сделает
(17:33)NoMaD: Admin, штамповки Максика мне не нужны,до сих пор себя за это ругаю
  • Admin
  • Spartanec1308
  • AB
  • Falco
  • Jonny3387
  • MosyakovDmitry
  • NoMaD
  • PavlikRavlik
  • Strelych
  • Арман
Онлайн: 10
Отправка сообщений доступно только зарегистрированным/авторизованным пользователям.

Гладиатор / Gladiator (2000) [Расширенная версия] BDRip 1080p [HEVC] 10 bit от Mr. Fox

HEVC
10 bit
Обложка Гладиатор / Gladiator (2000) [Расширенная версия] BDRip 1080p [HEVC] 10 bit от Mr. Fox Год: 2000
Страна: США, Великобритания, Мальта, Марокко
Студия: DreamWorks, Universal Pictures, Scott Free Productions
Жанр: Боевик, История, Драма, Приключения
Продолжительность: 02:50:56

Режиссер: Ридли Скотт
В ролях: Рассел Кроу, Хоакин Феникс, Конни Нильсен, Оливер Рид, Ричард Харрис, Дерек Джекоби, Джимон Хунсу, Дэвид Скофилд, Джон Шрэпнел, Томас Арана

Описание: В великой Римской империи не было военачальника, равного генералу Максимусу. Непобедимые легионы, которыми командовал этот благородный воин, боготворили его и могли последовать за ним даже в ад. Но случилось так, что отважный Максимус, готовый сразиться с любым противником в честном бою, оказался бессилен против вероломных придворных интриг. Генерала предали и приговорили к смерти. Чудом избежав гибели, Максимус становится гладиатором.


8.579319814
8.5
1249919


Формат: MKV
Видео: 1920x816, ~10,9 Мbps
Аудио1: AC3, 6 ch, 448 Kbps -
Русский, дублированный

Аудио2: AC3, 6 ch, 640 Kbps -
Русский, MVO (Телеканал «Интер» со вставками Киреева)

Аудио3: AC3, 6 ch, 640 Kbps -
Английский

Субтитры: Русские (форсированные, полные, SDH), английские (полные, SDH-Colored)

Как за пару секунд удалить ненужные аудиодорожки и субтитры (Внимание! После удаления вы не сможете поддержать раздачу)

Медиаинфо
Общее
Уникальный идентификатор : 75820650978886445840468796440182070790 (0x390A86B5D9B49B900F127FEA2B451E06)
Полное имя : R:\Gladiator (2000) BDRip 1080p [HEVC].mkv
Формат : Matroska
Версия формата : Version 4 / Version 2
Размер файла : 15,0 Гбайт
Продолжительность : 2 ч. 50 м.
Общий поток : 12,6 Мбит/сек
Название фильма : Gladiator (2000)
Дата кодирования : UTC 2019-11-30 05:30:20
Программа кодирования : mkvmerge v40.0.0 ('Old Town Road + Pony') 64-bit
Библиотека кодирования : libebml v1.3.9 + libmatroska v1.5.2
Обложка : Yes
Attachments : cover.jpg

Видео
Идентификатор : 1
Формат : HEVC
Формат/Информация : High Efficiency Video Coding
Профиль формата : Main 10@L4.1@High
Идентификатор кодека : V_MPEGH/ISO/HEVC
Продолжительность : 2 ч. 50 м.
Битрейт : 10,9 Мбит/сек
Ширина : 1920 пикселей
Высота : 816 пикселей
Соотношение сторон : 2,35:1
Режим частоты кадров : Постоянный
Частота кадров : 23,976 (23976/1000) кадра/сек
Частота кадров в оригинале : 23,976 (24000/1001) кадра/сек
Цветовое пространство : YUV
Субдискретизация насыщенности : 4:2:0
Битовая глубина : 10 бит
Бит/(Пиксели*Кадры) : 0.289
Размер потока : 13,0 Гбайт (86%)
Библиотека кодирования : x265 3.2.1+1-b5c86a64bbbe:[Windows][MSVC 1923][64 bit] 10bit
Настройки программы : cpuid=1111039 / frame-threads=3 / numa-pools=12 / wpp / no-pmode / no-pme / no-psnr / no-ssim / log-level=2 / input-csp=1 / input-res=1920x816 / interlace=0 / total-frames=236052 / level-idc=41 / high-tier=1 / uhd-bd=0 / ref=5 / no-allow-non-conformance / no-repeat-headers / annexb / no-aud / no-hrd / info / hash=0 / no-temporal-layers / open-gop / min-keyint=23 / keyint=240 / gop-lookahead=0 / bframes=14 / b-adapt=2 / b-pyramid / bframe-bias=0 / rc-lookahead=60 / lookahead-slices=4 / scenecut=40 / radl=0 / no-splice / no-intra-refresh / ctu=32 / min-cu-size=8 / rect / amp / max-tu-size=32 / tu-inter-depth=4 / tu-intra-depth=4 / limit-tu=1 / rdoq-level=2 / dynamic-rd=0.00 / no-ssim-rd / signhide / no-tskip / nr-intra=0 / nr-inter=0 / no-constrained-intra / no-strong-intra-smoothing / max-merge=4 / limit-refs=2 / limit-modes / me=3 / subme=7 / merange=57 / temporal-mvp / no-hme / weightp / weightb / no-analyze-src-pics / deblock=-3:-3 / no-sao / no-sao-non-deblock / rd=6 / selective-sao=0 / no-early-skip / no-rskip / no-fast-intra / no-tskip-fast / no-cu-lossless / no-b-intra / no-splitrd-skip / rdpenalty=0 / psy-rd=2.00 / psy-rdoq=1.00 / no-rd-refine / no-lossless / cbqpoffs=0 / crqpoffs=0 / rc=crf / crf=21.0 / qcomp=0.75 / qpstep=4 / stats-write=0 / stats-read=0 / vbv-maxrate=50000 / vbv-bufsize=50000 / vbv-init=0.9 / crf-max=0.0 / crf-min=0.0 / ipratio=1.40 / pbratio=1.30 / aq-mode=1 / aq-strength=1.00 / no-cutree / zone-count=0 / no-strict-cbr / qg-size=32 / no-rc-grain / qpmax=69 / qpmin=0 / no-const-vbv / sar=1 / overscan=0 / videoformat=5 / range=0 / colorprim=1 / transfer=1 / colormatrix=1 / chromaloc=0 / display-window=0 / cll=0,0 / min-luma=0 / max-luma=1023 / log2-max-poc-lsb=8 / vui-timing-info / vui-hrd-info / slices=1 / no-opt-qp-pps / no-opt-ref-list-length-pps / no-multi-pass-opt-rps / scenecut-bias=0.05 / no-opt-cu-delta-qp / no-aq-motion / no-hdr / no-hdr-opt / no-dhdr10-opt / no-idr-recovery-sei / analysis-reuse-level=5 / scale-factor=0 / refine-intra=0 / refine-inter=0 / refine-mv=1 / refine-ctu-distortion=0 / no-limit-sao / ctu-info=0 / no-lowpass-dct / refine-analysis-type=0 / copy-pic=1 / max-ausize-factor=1.0 / no-dynamic-refine / no-single-sei / no-hevc-aq / no-svt / no-field / qp-adaptation-range=1.00
Default : Да
Forced : Нет
Цветовой диапазон : Limited
Основные цвета : BT.709
Характеристики трансфера : BT.709
Коэффициенты матрицы : BT.709

Аудио #1
Идентификатор : 2
Формат : AC-3
Формат/Информация : Audio Coding 3
Идентификатор кодека : A_AC3
Продолжительность : 2 ч. 50 м.
Вид битрейта : Постоянный
Битрейт : 448 Кбит/сек
Каналы : 6 каналов
Расположение каналов : Front: L C R, Side: L R, LFE
Частота : 48,0 КГц
Частота кадров : 31,250 кадров/сек (1536 SPF)
Битовая глубина : 16 бит
Метод сжатия : С потерями
Размер потока : 548 Мбайт (4%)
Заголовок : Dub
Язык : Russian
ServiceKind/String : Complete Main
Default : Да
Forced : Нет

Аудио #2
Идентификатор : 3
Формат : AC-3
Формат/Информация : Audio Coding 3
Идентификатор кодека : A_AC3
Продолжительность : 2 ч. 50 м.
Вид битрейта : Постоянный
Битрейт : 640 Кбит/сек
Каналы : 6 каналов
Расположение каналов : Front: L C R, Side: L R, LFE
Частота : 48,0 КГц
Частота кадров : 31,250 кадров/сек (1536 SPF)
Битовая глубина : 16 бит
Метод сжатия : С потерями
Размер потока : 783 Мбайт (5%)
Заголовок : MVO | Telekanal Inter + A.Kireev
Язык : Russian
ServiceKind/String : Complete Main
Default : Нет
Forced : Нет

Аудио #3
Идентификатор : 4
Формат : AC-3
Формат/Информация : Audio Coding 3
Идентификатор кодека : A_AC3
Продолжительность : 2 ч. 50 м.
Вид битрейта : Постоянный
Битрейт : 640 Кбит/сек
Каналы : 6 каналов
Расположение каналов : Front: L C R, Side: L R, LFE
Частота : 48,0 КГц
Частота кадров : 31,250 кадров/сек (1536 SPF)
Битовая глубина : 16 бит
Метод сжатия : С потерями
Размер потока : 783 Мбайт (5%)
Заголовок : Original
Язык : English
ServiceKind/String : Complete Main
Default : Нет
Forced : Нет

Текст #1
Идентификатор : 5
Формат : UTF-8
Идентификатор кодека : S_TEXT/UTF8
Идентификатор кодека/Информация : UTF-8 Plain Text
Продолжительность : 2 ч. 45 м.
Битрейт : 0 бит/сек
ElementCount : 17
Размер потока : 925 байт (0%)
Заголовок : Forced
Язык : Russian
Default : Да
Forced : Нет

Текст #2
Идентификатор : 6
Формат : UTF-8
Идентификатор кодека : S_TEXT/UTF8
Идентификатор кодека/Информация : UTF-8 Plain Text
Продолжительность : 2 ч. 45 м.
Битрейт : 57 бит/сек
ElementCount : 1377
Размер потока : 69,3 Кбайт (0%)
Заголовок : Blu-ray CEE
Язык : Russian
Default : Нет
Forced : Нет

Текст #3
Идентификатор : 7
Формат : UTF-8
Идентификатор кодека : S_TEXT/UTF8
Идентификатор кодека/Информация : UTF-8 Plain Text
Продолжительность : 2 ч. 43 м.
Битрейт : 68 бит/сек
ElementCount : 1596
Размер потока : 82,3 Кбайт (0%)
Заголовок : SDH
Язык : Russian
Default : Нет
Forced : Нет

Текст #4
Идентификатор : 8
Формат : UTF-8
Идентификатор кодека : S_TEXT/UTF8
Идентификатор кодека/Информация : UTF-8 Plain Text
Продолжительность : 2 ч. 40 м.
Битрейт : 35 бит/сек
ElementCount : 1364
Размер потока : 41,5 Кбайт (0%)
Заголовок : Full
Язык : English
Default : Нет
Forced : Нет

Текст #5
Идентификатор : 9
Формат : UTF-8
Идентификатор кодека : S_TEXT/UTF8
Идентификатор кодека/Информация : UTF-8 Plain Text
Продолжительность : 2 ч. 41 м.
Битрейт : 41 бит/сек
ElementCount : 1444
Размер потока : 49,6 Кбайт (0%)
Заголовок : SDH-Colored
Язык : English
Default : Нет
Forced : Нет

Меню
00:00:00.000 : :Far from Home (Main Title)
00:07:13.308 : :Hell Unleashed
00:12:50.103 : :You Have Missed the War
00:18:44.790 : :A Pleasant Fiction
00:23:29.325 : :One More Duty
00:32:58.393 : :You Will Not Be Emperor
00:37:34.878 : :Hail Caesar
00:40:50.740 : :A Soldier's Death
00:47:32.725 : :Mark of the Legion
00:51:35.843 : :Gladiators, I Salute You
00:55:44.383 : :Battle in Chains
01:02:21.279 : :The Greatness of Rome
01:09:56.984 : :Win the Crowd
01:19:08.285 : :I Shall Cheer for You
01:29:21.648 : :The Battle of Carthage
01:37:11.784 : :My Name Is Gladiator
01:41:35.798 : :Terribly Vexed
01:51:58.837 : :A Man for the People
01:56:36.281 : :Maximus the Merciful
02:00:43.486 : :You Simply Won't Die
02:04:42.225 : :The Last Wish of a Dying Man
02:12:19.014 : :I'm an Entertainer
02:13:32.588 : :Busy Little Bee
02:24:15.438 : :Shadows and Dust
02:28:48.670 : :Am I Not Merciful?
02:34:20.751 : :Death Smiles at Us All
02:38:43.555 : :Home Again
02:42:57.726 : :Now We Are Free (End Credits)
Cкриншот1 Гладиатор / Gladiator (2000) [Расширенная версия] BDRip 1080p [HEVC] 10 bit от Mr. Fox
Загружается...
Cкриншот2 Гладиатор / Gladiator (2000) [Расширенная версия] BDRip 1080p [HEVC] 10 bit от Mr. Fox
Загружается...
Cкриншот3 Гладиатор / Gladiator (2000) [Расширенная версия] BDRip 1080p [HEVC] 10 bit от Mr. Fox
Загружается...
Cкриншот4 Гладиатор / Gladiator (2000) [Расширенная версия] BDRip 1080p [HEVC] 10 bit от Mr. Fox
Загружается...
СэмплТоррентМагнет

Кнопки "Позвать в чате", "Спасибо" и "Пожертвование" доступны только зарегистрированным/авторизованным пользователям!

Поблагодарили: 3
mat, NoMaD, sdell
01.12.2019  16:55:07
0
25
0
1
15.02 ГБ

Добавление нового комментария

Добавление комментариев доступно только зарегистрированным/авторизованным пользователям.