Обложка Распрекрасный принц / Charming (2018) BDRip 1080p [HEVC] 10 bit от M@kSIMusОбложка Простая просьба / A Simple Favor (2018) BDRip 1080p [HEVC] 8 bit от CthulhuОбложка Аксель / A-X-L (2018) BDRip 1080p [HEVC] 10 bit от HANNIBALОбложка Ночные игры / Game Night (2018) BDRip 1080p [HEVC] 10 bit от M@kSIMusОбложка Люди Икс: Тёмный Феникс / Dark Phoenix (2019) BDRip 1080p [HEVC] 10 bit от HANNIBALОбложка Балканский рубеж (2019) BDRip 1080p [HEVC] 10 bit от HANNIBALОбложка Tomb Raider: Лара Крофт / Tomb Raider (2018) BDRip 1080p [HEVC] 10 bit от XuMuKОбложка Кавалерия / 12 Strong (2018) BDRip 1080p [HEVC] 10 bit от HANNIBALОбложка Покемон. Детектив Пикачу / Pokémon Detective Pikachu (2019) BDRip 1080p [HEVC] 10 bit от HANNIBALОбложка Рэмпейдж / Rampage (2018) BDRip 1080p [HEVC] 10 bit от Мичман

Авторизация

Смена пароля

captcha

Регистрация

captcha

🔍 Поиск

Мини-чат

(09:56)OldGamer: NoMaD, с какой радости я что-то кому-то должен?
(09:56)NoMaD: OldGamer, не думаю что он в курсе что такое ключи. В принципе как и большинство тех,кто пробует сам кодировать на пресетах программы
(09:57)NoMaD: OldGamer, в плане совета) Не нужно сразу в бучу лезть!!! Не все же тут такие умные как ты.
(11:47)joker63: OldGamer, ✋
(12:13)OldGamer: joker63, ✋
(14:34)OldGamer: NoMaD, то есть ты ещё будешь мне говорить, что делать и куда лезть? 🤔
(19:47)medium: NoMaD, напишите кто нибудь краткий курс по кодированию (с ключами), я бы помог с релизами 4к
(19:47)OldGamer: medium, уже давно всё написано, было бы желание понимать написанное да не лениться экспериментировать, тестировать и сравнивать
(22:51)medium: OldGamer, скинь ссылку плс, где все написано, конечьно я изучу
(09:47)NoMaD: medium, обратите внимание на раздел Справка
(09:53)NoMaD: medium, помощь с релизами 4К нам не нужна,так как пока до конца кодирование с 4К не доведено до ума - цветопередача сильно отличается от кодирования с обычного ремукса и не в лучшую сторону
(11:29)Холодец_3: NoMaD, Ты за всех не говори Кабанчик.
(11:31)Admin: NoMaD, может он хочет в HDR, а там было бы подходящее устройство...
(12:32)NoMaD: Холодец_3, тогда напиши ему в личку и спроси,Холодечик) Раз сам не знаешь)
(12:33)NoMaD: Admin, HDR делать тоже не резонно - многим потом придётся объяснять что делать,чтобы нормально просмотреть видеофайл с нормальными цветами
(15:35)OldGamer: NoMaD, не надо говорить за всех, это нехорошая привычка. Если человек хочет заниматься 4К - это можно только приветствовать.
(16:32)NoMaD: OldGamer, а это так же как у тебя,тоже есть не хорошая привычка - говорить что тебе не нужно,когда тебя несколько человек уже просят сериал сделать.
(16:38)NoMaD: OldGamer, тем более когда сам начал хвалиться,что у тебя есть возможность на нескольких компьютерах делать. Было бы у меня хотя бы два,так я сам бы сделал
  • Admin
  • alexposad
  • alexxx65
  • andart75
  • Blackman91
  • igor302
  • Vitoss6
Онлайн: 7
Отправка сообщений доступно только зарегистрированным/авторизованным пользователям.

Доктор Дулиттл / Doctor Dolittle (1998) BDRip 1080p [HEVC] 10 bit от OldGamer (RG HEVC-CLUB)

HEVC
10 bit
Обложка Доктор Дулиттл / Doctor Dolittle (1998) BDRip 1080p [HEVC] 10 bit от OldGamer (RG HEVC-CLUB) Год: 1998
Страна: США
Студия: 20th Century Fox
Жанр: Фэнтези, Комедия, Семейный
Продолжительность: 01:25:22

Режиссер: Бетти Томас
В ролях: Эдди Мёрфи, Осси Дэвис, Оливер Платт, Питер Бойл, Ричард Шифф, Кристен Уилсон, Джеффри Тэмбор, Кайла Прэтт, Рэйвен, Стивен Гилборн

Описание: У доктора Джона Дулиттла есть, кажется, все, о чем только можно мечтать: удавшаяся карьера, красивая жена и две прелестные дочки. В довершение ко всему он вот — вот заключит самую большую в своей жизни финансовую сделку. Короче, доктор Дулиттл — настоящий счастливчик. И вдруг случается ужасное: доктор Дулиттл замечает, что в нем просыпается когда-то присущая ему способность… говорить на языке зверей. Дулиттл в прямом смысле слова понимает зов природы и может на него ответить. Отныне его ждет настоящая «собачья жизнь». Четвероногие и пернатые пациенты, прослышав про чудесного целителя, не дают ему прохода дома и на работе: «Кончай болтать, лечи!»…


6.56828440
5.4
87402


Формат: MKV
Видео: 1920x1038 (1,85:1), 16,7 мбит/сек, 0.349 бит/(Пиксели*Кадры), 23,976 (24000/1001) кадра/сек, HEVC (Main 10@L4.1@High) 10 бит
Аудио1: AC3, 2 ch, 192 Kbps -
Русский, Дублированный (Гемини)

Аудио2: AC3, 2 ch, 192 Kbps -
Русский, Многоголосый (R5 Фокс)

Аудио3: AC3, 6 ch, 448 Kbps -
Русский, Авторский (Максим Латышев (Егор Хрусталев))

Аудио4: AC3, 2 ch, 192 Kbps -
Русский, Авторский (Сергей Визгунов)

Аудио5: AC3, 2 ch, 192 Kbps -
Русский, Авторский (диктор CDV)

Аудио6: AC3, 6 ch, 640 Kbps -
English, Original

Субтитры: Русские полные (SRT), English full (SRT)

Как за пару секунд удалить ненужные аудиодорожки и субтитры (Внимание! После удаления вы не сможете поддержать раздачу)

Медиаинфо
x265 info: frame I: 517, Avg QP:18.22 kb/s: 31667.50
x265 info: frame P: 19489, Avg QP:19.11 kb/s: 24313.42
x265 info: frame B: 102809, Avg QP:21.48 kb/s: 15169.77
x265 info: Weighted P-Frames: Y:4.1% UV:3.3%
x265 info: Weighted B-Frames: Y:3.1% UV:2.2%
x265 info: consecutive B-frames: 1.5% 2.0% 5.8% 15.3% 11.9% 37.1% 7.2% 6.1% 2.7% 2.1% 2.0% 4.3% 0.7% 0.4% 0.3% 0.4% 0.3%
x265 info: encoded 122815 frames in 150287.29s (0.82 fps), 16690.19 kb/s, Avg QP:21.09

Формат : Matroska
Версия формата : Version 4
Размер файла : 11,1 Гбайт
Продолжительность : 1 ч. 25 м.
Общий поток : 18,6 Мбит/сек
Название фильма : Доктор Дулиттл
Описание : У доктора Джона Дулиттла есть, кажется, все, о чем только можно мечтать: удавшаяся карьера, красивая жена и две прелестные дочки. В довершение ко всему он вот — вот заключит самую большую в своей жизни финансовую сделку. Короче, доктор Дулиттл — настоящий счастливчик. И вдруг случается ужасное: доктор Дулиттл замечает, что в нем просыпается когда — то присущая ему способность… говорить на языке зверей.Дулиттл в прямом смысле слова понимает зов природы и может на него ответить. Отныне его ждет настоящая «собачья жизнь». Четвероногие и пернатые пациенты, прослышав про чудесного целителя, не дают ему прохода дома и на работе: «Кончай болтать, лечи!»…
Дата кодирования : UTC 2019-12-01 06:46:40
Программа кодирования : mkvmerge v40.0.0 ('Old Town Road + Pony') 64-bit
Библиотека кодирования : libebml v1.3.9 + libmatroska v1.5.2 / Lavf57.71.100
Attachments : poster.jpg / backdrop.jpg
ACTORS : Eddie Murphy, Ossie Davis, Oliver Platt, Peter Boyle, Richard Schiff, Kristen Wilson, Kyla Pratt, Jeffrey Tambor, Steven Gilborn, Raven-Symoné, Beth Grant, Crystal the Monkey, Albert Brooks, Paul Giamatti, Ellen DeGeneres, Chris Rock, Brian Doyle-Murray
COUNTRY : United States
DATE : 1998-06-22
DIRECTOR : Betty Thomas
ENCODING_INFO : MATROSKA,WEBM > MKV / H264 > X265 CRF 18.0 Very Slow / AC3 > COPY Безопасное / AC3 > COPY Безопасное / AC3 > COPY Безопасное / AC3 > COPY Безопасное / AC3 > COPY Безопасное / DTS-HD MA > AC3 CBR 640kbps
GENRE : комедия, семейный, фэнтези
HD_VIDEO : 1
ITUNEXTC : mpaa|PG-13|300|
Язык : und
MEDIA_TYPE : 9
ORIGINAL_TITLE : Doctor Dolittle
PRODUCER : John Davis, David T. Friendly
PUBLISHER : Joseph M. Singer Entertainment, Davis Entertainment, 20th Century Fox
RATING : 5.60
WRITER : Nat Mauldin, Larry Levin

Видео
Идентификатор : 1
Формат : HEVC
Формат/Информация : High Efficiency Video Coding
Профиль формата : Main 10@L4.1@High
Идентификатор кодека : V_MPEGH/ISO/HEVC
Продолжительность : 1 ч. 25 м.
Битрейт : 16,7 Мбит/сек
Ширина : 1920 пикселей
Высота : 1038 пикселей
Соотношение сторон : 1,85:1
Режим частоты кадров : Постоянный
Частота кадров : 23,976 (24000/1001) кадра/сек
Цветовое пространство : YUV
Субдискретизация насыщенности : 4:2:0
Битовая глубина : 10 бит
Бит/(Пиксели*Кадры) : 0.349
Размер потока : 9,95 Гбайт (90%)
Заголовок : Doctor Dolittle / Rip by OldGamer
Библиотека кодирования : x265 2.9+9-f74003e88622:[Windows][GCC 8.2.0][64 bit] 10bit
Настройки программы : cpuid=1111039 / frame-threads=16 / numa-pools=16 / wpp / no-pmode / no-pme / no-psnr / no-ssim / log-level=3 / input-csp=1 / input-res=1920x1038 / interlace=0 / total-frames=0 / level-idc=41 / high-tier=1 / uhd-bd=0 / ref=5 / allow-non-conformance / no-repeat-headers / annexb / no-aud / no-hrd / info / hash=0 / no-temporal-layers / open-gop / min-keyint=24 / keyint=240 / gop-lookahead=0 / bframes=16 / b-adapt=2 / b-pyramid / bframe-bias=0 / rc-lookahead=80 / lookahead-slices=6 / scenecut=40 / radl=0 / no-intra-refresh / ctu=64 / min-cu-size=8 / rect / amp / max-tu-size=32 / tu-inter-depth=4 / tu-intra-depth=4 / limit-tu=1 / rdoq-level=2 / dynamic-rd=0.00 / no-ssim-rd / signhide / no-tskip / nr-intra=0 / nr-inter=0 / no-constrained-intra / no-strong-intra-smoothing / max-merge=5 / limit-refs=3 / no-limit-modes / me=3 / subme=7 / merange=57 / temporal-mvp / weightp / weightb / no-analyze-src-pics / deblock=-3:-3 / no-sao / no-sao-non-deblock / rd=6 / no-early-skip / rskip / no-fast-intra / no-tskip-fast / no-cu-lossless / no-b-intra / no-splitrd-skip / rdpenalty=0 / psy-rd=2.00 / psy-rdoq=1.00 / no-rd-refine / no-lossless / cbqpoffs=0 / crqpoffs=0 / rc=crf / crf=18.0 / qcomp=0.60 / qpstep=4 / stats-write=0 / stats-read=0 / vbv-maxrate=50000 / vbv-bufsize=50000 / vbv-init=0.9 / crf-max=0.0 / crf-min=0.0 / ipratio=1.40 / pbratio=1.30 / aq-mode=2 / aq-strength=1.00 / no-cutree / zone-count=1 / zones: / start-frame=113402 / end-frame=122799 / qp=35 / no-strict-cbr / qg-size=32 / no-rc-grain / qpmax=69 / qpmin=0 / no-const-vbv / sar=1 / overscan=0 / videoformat=5 / range=0 / colorprim=1 / transfer=1 / colormatrix=1 / chromaloc=0 / display-window=0 / max-cll=0,0 / min-luma=0 / max-luma=1023 / log2-max-poc-lsb=8 / vui-timing-info / vui-hrd-info / slices=1 / no-opt-qp-pps / no-opt-ref-list-length-pps / no-multi-pass-opt-rps / scenecut-bias=0.00 / no-opt-cu-delta-qp / aq-motion / no-hdr / no-hdr-opt / no-dhdr10-opt / no-idr-recovery-sei / analysis-reuse-level=5 / scale-factor=0 / refine-intra=0 / refine-inter=0 / refine-mv=0 / no-limit-sao / ctu-info=0 / no-lowpass-dct / refine-mv-type=0 / copy-pic=1 / max-ausize-factor=1.0 / no-dynamic-refine / no-single-sei
Язык : English
Default : Да
Forced : Нет
Цветовой диапазон : Limited
Основные цвета : BT.709
Характеристики трансфера : BT.709
Коэффициенты матрицы : BT.709

Аудио #1
Идентификатор : 2
Формат : AC-3
Формат/Информация : Audio Coding 3
Коммерческое название : Dolby Digital
Идентификатор кодека : A_AC3
Продолжительность : 1 ч. 25 м.
Вид битрейта : Постоянный
Битрейт : 192 Кбит/сек
Каналы : 2 канала
Channel layout : L R
Частота : 48,0 КГц
Частота кадров : 31,250 кадров/сек (1536 SPF)
Битовая глубина : 16 бит
Метод сжатия : С потерями
Размер потока : 117 Мбайт (1%)
Заголовок : Dub (Гемини)
Язык : Russian
ServiceKind/String : Complete Main
Default : Да
Forced : Нет

Аудио #2
Идентификатор : 3
Формат : AC-3
Формат/Информация : Audio Coding 3
Коммерческое название : Dolby Digital
Идентификатор кодека : A_AC3
Продолжительность : 1 ч. 25 м.
Вид битрейта : Постоянный
Битрейт : 192 Кбит/сек
Каналы : 2 канала
Channel layout : L R
Частота : 48,0 КГц
Частота кадров : 31,250 кадров/сек (1536 SPF)
Битовая глубина : 16 бит
Метод сжатия : С потерями
Размер потока : 117 Мбайт (1%)
Заголовок : MVO - R5 Фокс
Язык : Russian
ServiceKind/String : Complete Main
Default : Нет
Forced : Нет

Аудио #3
Идентификатор : 4
Формат : AC-3
Формат/Информация : Audio Coding 3
Коммерческое название : Dolby Digital
Идентификатор кодека : A_AC3
Продолжительность : 1 ч. 25 м.
Вид битрейта : Постоянный
Битрейт : 448 Кбит/сек
Каналы : 6 каналов
Channel layout : L R C LFE Ls Rs
Частота : 48,0 КГц
Частота кадров : 31,250 кадров/сек (1536 SPF)
Битовая глубина : 16 бит
Метод сжатия : С потерями
Размер потока : 274 Мбайт (2%)
Заголовок : AVO - Максим Латышев (Егор Хрусталев)
Язык : Russian
ServiceKind/String : Complete Main
Default : Нет
Forced : Нет

Аудио #4
Идентификатор : 5
Формат : AC-3
Формат/Информация : Audio Coding 3
Коммерческое название : Dolby Digital
Идентификатор кодека : A_AC3
Продолжительность : 1 ч. 25 м.
Вид битрейта : Постоянный
Битрейт : 192 Кбит/сек
Каналы : 2 канала
Channel layout : L R
Частота : 48,0 КГц
Частота кадров : 31,250 кадров/сек (1536 SPF)
Битовая глубина : 16 бит
Метод сжатия : С потерями
Размер потока : 117 Мбайт (1%)
Заголовок : AVO - Сергей Визгунов
Язык : Russian
ServiceKind/String : Complete Main
Default : Нет
Forced : Нет

Аудио #5
Идентификатор : 6
Формат : AC-3
Формат/Информация : Audio Coding 3
Коммерческое название : Dolby Digital
Идентификатор кодека : A_AC3
Продолжительность : 1 ч. 25 м.
Вид битрейта : Постоянный
Битрейт : 192 Кбит/сек
Каналы : 2 канала
Channel layout : L R
Частота : 48,0 КГц
Частота кадров : 31,250 кадров/сек (1536 SPF)
Битовая глубина : 16 бит
Метод сжатия : С потерями
Размер потока : 117 Мбайт (1%)
Заголовок : AVO - диктор CDV
Язык : Russian
ServiceKind/String : Complete Main
Default : Нет
Forced : Нет

Аудио #6
Идентификатор : 7
Формат : AC-3
Формат/Информация : Audio Coding 3
Коммерческое название : Dolby Digital
Идентификатор кодека : A_AC3
Продолжительность : 1 ч. 25 м.
Вид битрейта : Постоянный
Битрейт : 640 Кбит/сек
Каналы : 6 каналов
Channel layout : L R C LFE Ls Rs
Частота : 48,0 КГц
Частота кадров : 31,250 кадров/сек (1536 SPF)
Битовая глубина : 16 бит
Метод сжатия : С потерями
Размер потока : 391 Мбайт (3%)
Язык : English
ServiceKind/String : Complete Main
Default : Нет
Forced : Нет

Текст #1
Идентификатор : 8
Формат : UTF-8
Идентификатор кодека : S_TEXT/UTF8
Идентификатор кодека/Информация : UTF-8 Plain Text
Продолжительность : 1 ч. 18 м.
Битрейт : 127 бит/сек
ElementCount : 1078
Размер потока : 73,7 Кбайт (0%)
Заголовок : FOX R5
Язык : Russian
Default : Нет
Forced : Нет

Текст #2
Идентификатор : 9
Формат : UTF-8
Идентификатор кодека : S_TEXT/UTF8
Идентификатор кодека/Информация : UTF-8 Plain Text
Продолжительность : 1 ч. 18 м.
Битрейт : 138 бит/сек
ElementCount : 1643
Размер потока : 78,9 Кбайт (0%)
Язык : Russian
Default : Нет
Forced : Нет

Текст #3
Идентификатор : 10
Формат : UTF-8
Идентификатор кодека : S_TEXT/UTF8
Идентификатор кодека/Информация : UTF-8 Plain Text
Продолжительность : 1 ч. 18 м.
Битрейт : 87 бит/сек
ElementCount : 1123
Размер потока : 50,0 Кбайт (0%)
Язык : English
Default : Нет
Forced : Нет
Cкриншот1 Доктор Дулиттл / Doctor Dolittle (1998) BDRip 1080p [HEVC] 10 bit от OldGamer (RG HEVC-CLUB)
Загружается...
Cкриншот2 Доктор Дулиттл / Doctor Dolittle (1998) BDRip 1080p [HEVC] 10 bit от OldGamer (RG HEVC-CLUB)
Загружается...
Cкриншот3 Доктор Дулиттл / Doctor Dolittle (1998) BDRip 1080p [HEVC] 10 bit от OldGamer (RG HEVC-CLUB)
Загружается...
Cкриншот4 Доктор Дулиттл / Doctor Dolittle (1998) BDRip 1080p [HEVC] 10 bit от OldGamer (RG HEVC-CLUB)
Загружается...
СэмплТоррентМагнет

Кнопки "Позвать в чате", "Спасибо" и "Пожертвование" доступны только зарегистрированным/авторизованным пользователям!

Поблагодарили: 4
375509, Brooklyn, LastSurviv0r, NoMaD
01.12.2019  10:15:10
0
43
1
0
11.06 ГБ

Добавление нового комментария

Добавление комментариев доступно только зарегистрированным/авторизованным пользователям.