Регистрация / Смена пароля

💬 Мини-чат

moonson: Alex302, ну, сообственно туда всем нашим врагам и дорога. Жалко только враг Жан-Поля застрял на 16 % и ни туда, и ни сюда 😄
Alex302: moonson, труп вашего врага растащило вороньё)
  • Spartanec1308
  • ancestor87
  • garant3v
  • InSpector
Отправка сообщений доступно только зарегистрированным/авторизованным пользователям.
Онлайн (за 10 мин.): 4

Основной инстинкт / Basic Instinct (1992) BDRip 1080p [HEVC] 10 bit от Cthulhu (RG KORSAR)

HEVC
10 bit
Обложка Основной инстинкт / Basic Instinct (1992) BDRip 1080p [HEVC] 10 bit от Cthulhu (RG KORSAR) Год: 1992
Страна: США, Франция
Студия: Canal+, Carolco Pictures Inc.
Жанр: Триллер, Криминал, Детектив
Продолжительность: 02:08:15

Режиссер: Пол Верховен
В ролях: Майкл Дуглас, Шэрон Стоун, Джордж Дзундза, Джинн Трипплхорн, Дэнис Арндт, Лейлани Сарелл, Брюс А. Янг, Челси Росс, Дороти Мэлоун, Уэйн Найт, Дэниэл фон Барген, Стивен Тоболовски, Бенжамин Мутон, Джек МакГи, Билл Кейбл, Стивен Роу, Митч Пиледжи, Мэри Пэт Глисон, Фреда Фо Шен, Уильям Дафф-Гриффин, Джеймс Ребхорн, Дэвид Уэллс

Описание: Детектив Ник Каррен ведет расследование по делу об извращенном убийстве на сексуальной почве. Подозрение падает на подругу убитого Кэтрин — писательницу, автора шокирующих романов, которая в своей последней книге подробно описала абсолютно аналогичное преступление. Но обворожительная, неимоверно сексуальная писательница, обладает удивительной способностью манипулировать мужчинами, пробудив в них один из самых основных инстинктов.

КиноПоиск
7.732 69433
IMDb
7
166079


Видео: 1920x816, 8747 Kbps
Аудио1: AC3, 2 ch, 192 Kbps -
Русский, Многоголосый (РТР)
Аудио2: AC3, 2 ch, 192 Kbps -
Русский, Многоголосый (НТВ)
Аудио3: AC3, 6 ch, 448 Kbps -
Русский, Двухголосый (CP-Digital)
Аудио4: AC3, 2 ch, 192 Kbps -
Русский, Двухголосый (ОРТ)
Аудио5: AC3, 2 ch, 192 Kbps -
Русский, Двухголосый (Премьер Видео фильм)
Аудио6: AC3, 6 ch, 640 Kbps -
Русский, Одноголосый (Гаврилов)
Аудио7: AC3, 6 ch, 640 Kbps -
Русский, Одноголосый (Живов)
Аудио8: AC3, 6 ch, 640 Kbps -
Русский, Одноголосый (Матвеев)
Аудио9: AC3, 6 ch, 448 Kbps -
Русский, Одноголосый (Сербин)
Аудио10: AC3, 2 ch, 192 Kbps -
Русский, Одноголосый (Горчаков ранний)
Аудио11: AC3, 2 ch, 192 Kbps -
Русский, Одноголосый (Горчаков поздний)
Аудио12: AC3, 2 ch, 192 Kbps -
Русский, Одноголосый (Либергал)
Аудио13: AC3, 6 ch, 448 Kbps -
Украинский, Многоголосый (КІНО)
Аудио14: AC3, 6 ch, 640 Kbps -
Английский, Оригинал
Субтитры: Русские (3 вида), English

Как за пару секунд удалить ненужные аудиодорожки и субтитры (Внимание! После удаления вы не сможете поддержать раздачу)

Медиаинфо
x265 [info]: frame I: 1300, Avg QP:17.91 kb/s: 24708.48
x265 [info]: frame P: 32527, Avg QP:19.20 kb/s: 19076.92
x265 [info]: frame B: 150678, Avg QP:21.16 kb/s: 6378.88
x265 [info]: consecutive B-frames: 4.6% 1.6% 3.4% 25.5% 10.8% 33.0% 6.6% 9.6% 2.0% 1.5% 0.6% 0.4% 0.2% 0.1% 0.0% 0.1% 0.1%

General
Unique ID : 170565147697105560940958263522535631913 (0x8051A70CFBE16A62FA30CA99D0236C29)
Complete name : H:\HEVC4\Основной инстинкт - Basic Instinct (1992) BDRip-HEVC 1080p - KORSAR.mkv
Format : Matroska
Format version : Version 4 / Version 2
File size : 12.5 GiB
Duration : 2 h 8 min
Overall bit rate : 14.0 Mb/s
Movie name : Basic Instinct (1992)_rip_by_Cthulhu
Encoded date : UTC 2019-11-05 20:41:23
Writing application : mkvmerge v37.0.0 ('Leave It') 64-bit
Writing library : libebml v1.3.9 + libmatroska v1.5.2
Cover : Yes
Attachments : cover10.jpg

Video
ID : 1
Format : HEVC
Format/Info : High Efficiency Video Coding
Format profile : Main 10@L4.1@High
Codec ID : V_MPEGH/ISO/HEVC
Duration : 2 h 8 min
Bit rate : 8 747 kb/s
Width : 1 912 pixels
Height : 816 pixels
Display aspect ratio : 2.35:1
Frame rate mode : Constant
Frame rate : 23.976 (24000/1001) FPS
Color space : YUV
Chroma subsampling : 4:2:0
Bit depth : 10 bits
Bits/(Pixel*Frame) : 0.234
Stream size : 7.84 GiB (62%)
Writing library : x265 3.2+5-a3a088a7262f:[Windows][GCC 9.2.0][64 bit] 10bit
Encoding settings : cpuid=1111039 / frame-threads=4 / numa-pools=16 / wpp / no-pmode / no-pme / no-psnr / no-ssim / log-level=2 / input-csp=1 / input-res=1912x816 / interlace=0 / total-frames=184505 / level-idc=41 / high-tier=1 / uhd-bd=0 / ref=5 / no-allow-non-conformance / no-repeat-headers / annexb / no-aud / no-hrd / info / hash=0 / no-temporal-layers / open-gop / min-keyint=23 / keyint=240 / gop-lookahead=0 / bframes=16 / b-adapt=2 / b-pyramid / bframe-bias=0 / rc-lookahead=60 / lookahead-slices=1 / scenecut=40 / radl=0 / no-splice / no-intra-refresh / ctu=32 / min-cu-size=8 / rect / amp / max-tu-size=32 / tu-inter-depth=4 / tu-intra-depth=4 / limit-tu=1 / rdoq-level=2 / dynamic-rd=0.00 / no-ssim-rd / signhide / no-tskip / nr-intra=0 / nr-inter=0 / no-constrained-intra / no-strong-intra-smoothing / max-merge=5 / limit-refs=3 / limit-modes / me=3 / subme=7 / merange=57 / temporal-mvp / no-hme / weightp / weightb / no-analyze-src-pics / deblock=-3:-3 / no-sao / no-sao-non-deblock / rd=6 / selective-sao=0 / no-early-skip / no-rskip / no-fast-intra / no-tskip-fast / no-cu-lossless / no-b-intra / no-splitrd-skip / rdpenalty=0 / psy-rd=2.00 / psy-rdoq=1.10 / no-rd-refine / no-lossless / cbqpoffs=0 / crqpoffs=0 / rc=crf / crf=19.0 / qcomp=0.70 / qpstep=4 / stats-write=0 / stats-read=0 / vbv-maxrate=50000 / vbv-bufsize=50000 / vbv-init=0.9 / crf-max=0.0 / crf-min=0.0 / ipratio=1.40 / pbratio=1.30 / aq-mode=1 / aq-strength=1.00 / no-cutree / zone-count=0 / no-strict-cbr / qg-size=32 / no-rc-grain / qpmax=69 / qpmin=0 / no-const-vbv / sar=1 / overscan=0 / videoformat=5 / range=0 / colorprim=1 / transfer=1 / colormatrix=1 / chromaloc=0 / display-window=0 / cll=0,0 / min-luma=0 / max-luma=1023 / log2-max-poc-lsb=8 / vui-timing-info / vui-hrd-info / slices=1 / no-opt-qp-pps / no-opt-ref-list-length-pps / no-multi-pass-opt-rps / scenecut-bias=0.05 / no-opt-cu-delta-qp / no-aq-motion / no-hdr / no-hdr-opt / no-dhdr10-opt / no-idr-recovery-sei / analysis-reuse-level=5 / scale-factor=0 / refine-intra=0 / refine-inter=0 / refine-mv=1 / refine-ctu-distortion=0 / no-limit-sao / ctu-info=0 / no-lowpass-dct / refine-analysis-type=0 / copy-pic=1 / max-ausize-factor=1.0 / no-dynamic-refine / no-single-sei / hevc-aq / no-svt / no-field / qp-adaptation-range=2.00
Language : English
Default : Yes
Forced : No
Color range : Limited
Color primaries : BT.709
Transfer characteristics : BT.709
Matrix coefficients : BT.709

Audio #1
ID : 2
Format : AC-3
Format/Info : Audio Coding 3
Commercial name : Dolby Digital
Codec ID : A_AC3
Duration : 2 h 8 min
Bit rate mode : Constant
Bit rate : 192 kb/s
Channel(s) : 2 channels
Channel layout : L R
Sampling rate : 48.0 kHz
Frame rate : 31.250 FPS (1536 SPF)
Bit depth : 16 bits
Compression mode : Lossy
Stream size : 176 MiB (1%)
Title : MVO РТР
Language : Russian
Service kind : Complete Main
Default : Yes
Forced : No

Audio #2
ID : 3
Format : AC-3
Format/Info : Audio Coding 3
Commercial name : Dolby Digital
Codec ID : A_AC3
Duration : 2 h 8 min
Bit rate mode : Constant
Bit rate : 192 kb/s
Channel(s) : 2 channels
Channel layout : L R
Sampling rate : 48.0 kHz
Frame rate : 31.250 FPS (1536 SPF)
Bit depth : 16 bits
Compression mode : Lossy
Stream size : 176 MiB (1%)
Title : MVO НТВ
Language : Russian
Service kind : Complete Main
Default : No
Forced : No

Audio #3
ID : 4
Format : AC-3
Format/Info : Audio Coding 3
Commercial name : Dolby Digital
Codec ID : A_AC3
Duration : 2 h 8 min
Bit rate mode : Constant
Bit rate : 448 kb/s
Channel(s) : 6 channels
Channel layout : L R C LFE Ls Rs
Sampling rate : 48.0 kHz
Frame rate : 31.250 FPS (1536 SPF)
Bit depth : 16 bits
Compression mode : Lossy
Stream size : 411 MiB (3%)
Title : DVO CP-Digital
Language : Russian
Service kind : Complete Main
Default : No
Forced : No

Audio #4
ID : 5
Format : AC-3
Format/Info : Audio Coding 3
Commercial name : Dolby Digital
Codec ID : A_AC3
Duration : 2 h 8 min
Bit rate mode : Constant
Bit rate : 192 kb/s
Channel(s) : 2 channels
Channel layout : L R
Sampling rate : 48.0 kHz
Frame rate : 31.250 FPS (1536 SPF)
Bit depth : 16 bits
Compression mode : Lossy
Stream size : 176 MiB (1%)
Title : DVO ОРТ
Language : Russian
Service kind : Complete Main
Default : No
Forced : No

Audio #5
ID : 6
Format : AC-3
Format/Info : Audio Coding 3
Commercial name : Dolby Digital
Codec ID : A_AC3
Duration : 2 h 8 min
Bit rate mode : Constant
Bit rate : 192 kb/s
Channel(s) : 2 channels
Channel layout : L R
Sampling rate : 48.0 kHz
Frame rate : 31.250 FPS (1536 SPF)
Bit depth : 16 bits
Compression mode : Lossy
Stream size : 176 MiB (1%)
Title : DVO Премьер Видео фильм
Language : Russian
Service kind : Complete Main
Default : No
Forced : No

Audio #6
ID : 7
Format : AC-3
Format/Info : Audio Coding 3
Commercial name : Dolby Digital
Codec ID : A_AC3
Duration : 2 h 8 min
Bit rate mode : Constant
Bit rate : 640 kb/s
Channel(s) : 6 channels
Channel layout : L R C LFE Ls Rs
Sampling rate : 48.0 kHz
Frame rate : 31.250 FPS (1536 SPF)
Bit depth : 16 bits
Compression mode : Lossy
Stream size : 587 MiB (5%)
Title : AVO Гаврилов
Language : Russian
Service kind : Complete Main
Default : No
Forced : No

Audio #7
ID : 8
Format : AC-3
Format/Info : Audio Coding 3
Commercial name : Dolby Digital
Codec ID : A_AC3
Duration : 2 h 8 min
Bit rate mode : Constant
Bit rate : 640 kb/s
Channel(s) : 6 channels
Channel layout : L R C LFE Ls Rs
Sampling rate : 48.0 kHz
Frame rate : 31.250 FPS (1536 SPF)
Bit depth : 16 bits
Compression mode : Lossy
Stream size : 587 MiB (5%)
Title : AVO Живов
Language : Russian
Service kind : Complete Main
Default : No
Forced : No

Audio #8
ID : 9
Format : AC-3
Format/Info : Audio Coding 3
Commercial name : Dolby Digital
Codec ID : A_AC3
Duration : 2 h 8 min
Bit rate mode : Constant
Bit rate : 640 kb/s
Channel(s) : 6 channels
Channel layout : L R C LFE Ls Rs
Sampling rate : 48.0 kHz
Frame rate : 31.250 FPS (1536 SPF)
Bit depth : 16 bits
Compression mode : Lossy
Stream size : 587 MiB (5%)
Title : AVO Матвеев
Language : Russian
Service kind : Complete Main
Default : No
Forced : No

Audio #9
ID : 10
Format : AC-3
Format/Info : Audio Coding 3
Commercial name : Dolby Digital
Codec ID : A_AC3
Duration : 2 h 8 min
Bit rate mode : Constant
Bit rate : 448 kb/s
Channel(s) : 6 channels
Channel layout : L R C LFE Ls Rs
Sampling rate : 48.0 kHz
Frame rate : 31.250 FPS (1536 SPF)
Bit depth : 16 bits
Compression mode : Lossy
Stream size : 411 MiB (3%)
Title : AVO Сербин
Language : Russian
Service kind : Complete Main
Default : No
Forced : No

Audio #10
ID : 11
Format : AC-3
Format/Info : Audio Coding 3
Commercial name : Dolby Digital
Codec ID : A_AC3
Duration : 2 h 8 min
Bit rate mode : Constant
Bit rate : 192 kb/s
Channel(s) : 2 channels
Channel layout : L R
Sampling rate : 48.0 kHz
Frame rate : 31.250 FPS (1536 SPF)
Bit depth : 16 bits
Compression mode : Lossy
Stream size : 176 MiB (1%)
Title : AVO Горчаков ранний
Language : Russian
Service kind : Complete Main
Default : No
Forced : No

Audio #11
ID : 12
Format : AC-3
Format/Info : Audio Coding 3
Commercial name : Dolby Digital
Codec ID : A_AC3
Duration : 2 h 8 min
Bit rate mode : Constant
Bit rate : 192 kb/s
Channel(s) : 2 channels
Channel layout : L R
Sampling rate : 48.0 kHz
Frame rate : 31.250 FPS (1536 SPF)
Bit depth : 16 bits
Compression mode : Lossy
Stream size : 176 MiB (1%)
Title : AVO Горчаков поздний
Language : Russian
Service kind : Complete Main
Default : No
Forced : No

Audio #12
ID : 13
Format : AC-3
Format/Info : Audio Coding 3
Commercial name : Dolby Digital
Codec ID : A_AC3
Duration : 2 h 8 min
Bit rate mode : Constant
Bit rate : 192 kb/s
Channel(s) : 2 channels
Channel layout : L R
Sampling rate : 48.0 kHz
Frame rate : 31.250 FPS (1536 SPF)
Bit depth : 16 bits
Compression mode : Lossy
Stream size : 176 MiB (1%)
Title : AVO Либергал
Language : Russian
Service kind : Complete Main
Default : No
Forced : No

Audio #13
ID : 14
Format : AC-3
Format/Info : Audio Coding 3
Commercial name : Dolby Digital
Codec ID : A_AC3
Duration : 2 h 8 min
Bit rate mode : Constant
Bit rate : 448 kb/s
Channel(s) : 6 channels
Channel layout : L R C LFE Ls Rs
Sampling rate : 48.0 kHz
Frame rate : 31.250 FPS (1536 SPF)
Bit depth : 16 bits
Compression mode : Lossy
Stream size : 411 MiB (3%)
Title : MVO КІНО
Language : Ukrainian
Service kind : Complete Main
Default : No
Forced : No

Audio #14
ID : 15
Format : AC-3
Format/Info : Audio Coding 3
Commercial name : Dolby Digital
Codec ID : A_AC3
Duration : 2 h 8 min
Bit rate mode : Constant
Bit rate : 640 kb/s
Channel(s) : 6 channels
Channel layout : L R C LFE Ls Rs
Sampling rate : 48.0 kHz
Frame rate : 31.250 FPS (1536 SPF)
Bit depth : 16 bits
Compression mode : Lossy
Stream size : 587 MiB (5%)
Language : English
Service kind : Complete Main
Default : No
Forced : No

Text #1
ID : 16
Format : UTF-8
Codec ID : S_TEXT/UTF8
Codec ID/Info : UTF-8 Plain Text
Duration : 2 h 3 min
Bit rate : 84 b/s
Count of elements : 1178
Stream size : 76.8 KiB (0%)
Title : BD EUR
Language : Russian
Default : No
Forced : No

Text #2
ID : 17
Format : UTF-8
Codec ID : S_TEXT/UTF8
Codec ID/Info : UTF-8 Plain Text
Duration : 2 h 1 min
Bit rate : 76 b/s
Count of elements : 1049
Stream size : 67.8 KiB (0%)
Title : CP-Digital
Language : Russian
Default : No
Forced : No

Text #3
ID : 18
Format : UTF-8
Codec ID : S_TEXT/UTF8
Codec ID/Info : UTF-8 Plain Text
Duration : 1 h 59 min
Bit rate : 86 b/s
Count of elements : 1195
Stream size : 75.5 KiB (0%)
Title : MartinaG
Language : Russian
Default : No
Forced : No

Text #4
ID : 19
Format : UTF-8
Codec ID : S_TEXT/UTF8
Codec ID/Info : UTF-8 Plain Text
Duration : 2 h 3 min
Bit rate : 37 b/s
Count of elements : 831
Stream size : 34.3 KiB (0%)
Language : English
Default : No
Forced : No

Menu
00:00:00.000 : en:
00:07:21.823 : en:
00:13:25.270 : en:
00:21:00.975 : en:
00:30:38.886 : en:
00:40:04.075 : en:
00:45:18.014 : en:
00:51:32.888 : en:
01:02:08.523 : en:
01:11:35.590 : en:
01:20:45.890 : en:
01:30:38.064 : en:
01:34:23.081 : en:
01:41:37.305 : en:
01:48:12.159 : en:
01:50:21.455 : en:
Cкриншот1 Основной инстинкт / Basic Instinct (1992) BDRip 1080p [HEVC] 10 bit от Cthulhu (RG KORSAR)
Загружается...
Cкриншот2 Основной инстинкт / Basic Instinct (1992) BDRip 1080p [HEVC] 10 bit от Cthulhu (RG KORSAR)
Загружается...
Cкриншот3 Основной инстинкт / Basic Instinct (1992) BDRip 1080p [HEVC] 10 bit от Cthulhu (RG KORSAR)
Загружается...
Cкриншот4 Основной инстинкт / Basic Instinct (1992) BDRip 1080p [HEVC] 10 bit от Cthulhu (RG KORSAR)
Загружается...
Релиз-группа: KORSAR
Сэмпл Торрент🧲 Магнет

Кнопки "Позвать в чате" и "Спасибо" доступны только зарегистрированным/авторизованным пользователям!

Раздача обновлена!
Исправлена аудиодорожка №2 "MVO НТВ"

Файлы: 1
  • Основной инстинкт - Basic Instinct (1992) BDRip-HEVC 1080p - KORSAR.mkv   12.54 ГБ
Поблагодарили: 16
375509, Brooklyn, cbyc, GIS88, makss333, mat, MIGRANT, NoMaD, Nuclear70, OldGamer, penman, pri_vet, sabretooth, sdell, silver, vladd37
Cthulhu
113612012.54 ГБ

Добавление нового комментария

Добавление комментариев доступно только зарегистрированным/авторизованным пользователям.
Аватар cbyc
  cbyc  
Какое то волнение и легкое чувство стыда вызывает один только вид этого фильма )