Обложка Собибор (2018) BDRip 1080p [HEVC] 10 bit от HANNIBALОбложка Ночные игры / Game Night (2018) BDRip 1080p [HEVC] 10 bit от M@kSIMusОбложка Красный воробей / Red Sparrow (2018) BDRip 1080p [HEVC] 10 bit от HANNIBALОбложка Кин / Kin (2018) BDRip 1080p [HEVC] 10 bit от HANNIBALОбложка Звезда родилась / A Star Is Born (2018) BDRip 1080p [HEVC] 10 bit от HANNIBALОбложка Хантер Киллер / Hunter Killer (2018) BDRip 1080p [HEVC] 10 bit от M@kSIMusОбложка Привидение / Every Day (2018) BDRip 1080p [HEVC] 8 bit от M@kSIMusОбложка Жажда смерти / Death Wish (2018) BDRip 1080p [HEVC] 10 bit от XuMuKОбложка Tarja Turunen - Act II (2018) BDRip 1080p [HEVC] 8 bit от ADVOKAT69Обложка Покемон. Детектив Пикачу / Pokémon Detective Pikachu (2019) BDRip 1080p [HEVC] 10 bit от HANNIBAL

Авторизация

Смена пароля

captcha

Регистрация

captcha

🔍 Поиск

Мини-чат

(09:53)OldGamer: gurvinok, может быть посмотреть сначала разницу между пресетами, какие ключи на каком пресете какое значение принимают, ну а потом и за что отвечают эти ключи. Вопрос отпадёт сам собой.
(09:54)NoMaD: gurvinok, модератор должен что нибудь написать)
(09:56)OldGamer: NoMaD, с какой радости я что-то кому-то должен?
(09:56)NoMaD: OldGamer, не думаю что он в курсе что такое ключи. В принципе как и большинство тех,кто пробует сам кодировать на пресетах программы
(09:57)NoMaD: OldGamer, в плане совета) Не нужно сразу в бучу лезть!!! Не все же тут такие умные как ты.
(11:47)joker63: OldGamer, ✋
(12:13)OldGamer: joker63, ✋
(14:34)OldGamer: NoMaD, то есть ты ещё будешь мне говорить, что делать и куда лезть? 🤔
(19:47)medium: NoMaD, напишите кто нибудь краткий курс по кодированию (с ключами), я бы помог с релизами 4к
(19:47)OldGamer: medium, уже давно всё написано, было бы желание понимать написанное да не лениться экспериментировать, тестировать и сравнивать
(22:51)medium: OldGamer, скинь ссылку плс, где все написано, конечьно я изучу
(09:47)NoMaD: medium, обратите внимание на раздел Справка
(09:53)NoMaD: medium, помощь с релизами 4К нам не нужна,так как пока до конца кодирование с 4К не доведено до ума - цветопередача сильно отличается от кодирования с обычного ремукса и не в лучшую сторону
(11:29)Холодец_3: NoMaD, Ты за всех не говори Кабанчик.
(11:31)Admin: NoMaD, может он хочет в HDR, а там было бы подходящее устройство...
(12:32)NoMaD: Холодец_3, тогда напиши ему в личку и спроси,Холодечик) Раз сам не знаешь)
(12:33)NoMaD: Admin, HDR делать тоже не резонно - многим потом придётся объяснять что делать,чтобы нормально просмотреть видеофайл с нормальными цветами
(15:35)OldGamer: NoMaD, не надо говорить за всех, это нехорошая привычка. Если человек хочет заниматься 4К - это можно только приветствовать.
  • creyc225
  • FTOR
  • michael90
  • miro333
  • NoMaD
  • Solee
Онлайн: 6
Отправка сообщений доступно только зарегистрированным/авторизованным пользователям.

Игра престолов / Game of Thrones (2019) [8 сезон] BDRip 1080p [HEVC] 10 bit от OldGamer (RG HEVC-CLUB)

HEVC
10 bit
Обложка Игра престолов / Game of Thrones (2019) [8 сезон] BDRip 1080p [HEVC] 10 bit от OldGamer (RG HEVC-CLUB) Год: 2019
Страна: США, Великобритания
Студия: HBO
Жанр: Фэнтези, Драма, Боевик, Мелодрама
Продолжительность: 07:06:06

Режиссер: Дэвид Наттер, Алан Тейлор, Алекс Грейвз
В ролях: Питер Динклэйдж, Лина Хиди, Эмилия Кларк, Кит Харингтон, Софи Тёрнер, Мэйси Уильямс, Николай Костер-Вальдау, Иэн Глен, Алфи Аллен, Джон Брэдли

Описание: В основу сериала Игра престолов (Game of Thrones) положена серия романов Джорджа Мартина «Песнь Льда и Огня». Сплетения жестоких и изощренных интриг, отличная игра актеров, будоражащие воображение съемки, это те причины, по которым стоит смотреть сериал. Все события разворачиваются вокруг Семи королевств, находящихся на несуществующем континенте Вестерос. В этом мире подходит к концу время счастья и благоденствия, и вокруг Железного трона плетутся интриги, и зреет заговор. Ведь в мире, где каждый рвется к власти, по-другому быть не может. Конфликт между королевскими семьями приводит к войне. За этим всем никто не замечает возрождения великого зла на Севере, и пока только Стена защищает людей живущих к югу от нее. Но даже здесь находится место благородству и состраданию.

Серии
S08E01.Winterfell.mkv
S08E02.A.Knight.of.the.Seven.Kingdoms.mkv
S08E03.The.Long.Night.mkv
S08E04.The.Last.of.the.Starks.mkv
S08E05.The.Bells.mkv
S08E06.The.Iron.Throne.mkv

Формат: MKV
Видео: 1920x1080 (16:9), 2925-4472 кбит/сек, 0.083 бит/(Пиксели*Кадры), 23,976 (24000/1001) кадра/сек, HEVC (Main 10@L4.1@High) 10 бит
Аудио1: AC3, 6 ch, 448 Kbps -
Русский, Дублированный (Blu-ray 4K EUR)

Аудио2: AC3, 6 ch, 640 Kbps -
Русский, Многоголосый (Novamedia)

Аудио3: AC3, 6 ch, 640 Kbps -
Русский, Многоголосый (FocusStudio)

Аудио4: AC3, 6 ch, 640 Kbps -
Русский, Многоголосый (AlexFilm)

Аудио5: AC3, 6 ch, 640 Kbps -
Русский, Многоголосый (LostFilm)

Аудио6: AC3, 6 ch, 640 Kbps -
Русский, Многоголосый (HDrezka Studio)

Аудио7: AC3, 6 ch, 640 Kbps -
Русский, Многоголосый (AMS)

Аудио8: AC3, 6 ch, 640 Kbps -
Русский, Многоголосый (FOX)

Аудио9: AC3, 6 ch, 640 Kbps -
English, Original

Субтитры: Русские форсированные и полные (SRT), English forced and full (SRT)

Как за пару секунд удалить ненужные аудиодорожки и субтитры (Внимание! После удаления вы не сможете поддержать раздачу)

Медиаинфо
x265 info: frame I: 320, Avg QP:15.59 kb/s: 15342.42
x265 info: frame P: 13863, Avg QP:17.14 kb/s: 9419.09
x265 info: frame B: 62250, Avg QP:19.02 kb/s: 2914.97
x265 info: Weighted P-Frames: Y:12.1% UV:9.9%
x265 info: Weighted B-Frames: Y:14.8% UV:11.2%
x265 info: consecutive B-frames: 3.0% 3.6% 19.6% 17.8% 10.0% 24.5% 6.0% 4.4% 2.9% 2.3% 2.0% 1.4% 0.7% 0.6% 0.4% 0.3% 0.4%
x265 info: encoded 76433 frames in 56651.78s (1.35 fps), 4146.68 kb/s, Avg QP:18.66

Формат : Matroska
Версия формата : Version 4
Размер файла : 3,61 Гбайт
Продолжительность : 53 м. 7 с.
Общий поток : 9720 Кбит/сек
Название фильма : Игра престолов / Game of Thrones {Сезон 8} (2019)
Дата кодирования : UTC 2019-11-25 16:40:28
Программа кодирования : mkvmerge v40.0.0 ('Old Town Road + Pony') 64-bit
Библиотека кодирования : libebml v1.3.9 + libmatroska v1.5.2 / Lavf57.71.100
Обложка : Yes
Attachments : cover.jpg
ENCODING_INFO : MATROSKA,WEBM > MKV / H264 > X265 CRF 20.5 Very Slow / AC3 > COPY Безопасное / AC3 > COPY Безопасное / AC3 > COPY Безопасное / AC3 > COPY Безопасное / AC3 > COPY Безопасное / AC3 > COPY Безопасное / AC3 > COPY Безопасное / AC3 > COPY Безопасное / AC3 > COPY Безопасное / AC3 > COPY Безопасное
Язык : und

Видео
Идентификатор : 1
Формат : HEVC
Формат/Информация : High Efficiency Video Coding
Профиль формата : Main 10@L4.1@High
Идентификатор кодека : V_MPEGH/ISO/HEVC
Продолжительность : 53 м. 7 с.
Битрейт : 4147 Кбит/сек
Ширина : 1920 пикселей
Высота : 1080 пикселей
Соотношение сторон : 16:9
Режим частоты кадров : Постоянный
Частота кадров : 23,976 (24000/1001) кадра/сек
Цветовое пространство : YUV
Субдискретизация насыщенности : 4:2:0
Битовая глубина : 10 бит
Бит/(Пиксели*Кадры) : 0.083
Размер потока : 1,54 Гбайт (43%)
Заголовок : Game Of Trones S08E01 - Rip by OldGamer
Библиотека кодирования : x265 2.9+9-f74003e88622:[Windows][GCC 8.2.0][64 bit] 10bit
Настройки программы : cpuid=1111039 / frame-threads=16 / numa-pools=16 / wpp / no-pmode / no-pme / no-psnr / no-ssim / log-level=3 / input-csp=1 / input-res=1920x1080 / interlace=0 / total-frames=0 / level-idc=41 / high-tier=1 / uhd-bd=0 / ref=5 / allow-non-conformance / no-repeat-headers / annexb / no-aud / no-hrd / info / hash=0 / no-temporal-layers / open-gop / min-keyint=24 / keyint=240 / gop-lookahead=0 / bframes=16 / b-adapt=2 / b-pyramid / bframe-bias=0 / rc-lookahead=80 / lookahead-slices=6 / scenecut=40 / radl=0 / no-intra-refresh / ctu=64 / min-cu-size=8 / rect / amp / max-tu-size=32 / tu-inter-depth=4 / tu-intra-depth=4 / limit-tu=1 / rdoq-level=2 / dynamic-rd=0.00 / no-ssim-rd / signhide / no-tskip / nr-intra=0 / nr-inter=0 / no-constrained-intra / no-strong-intra-smoothing / max-merge=5 / limit-refs=3 / no-limit-modes / me=3 / subme=7 / merange=57 / temporal-mvp / weightp / weightb / no-analyze-src-pics / deblock=-3:-3 / no-sao / no-sao-non-deblock / rd=6 / no-early-skip / rskip / no-fast-intra / no-tskip-fast / no-cu-lossless / no-b-intra / no-splitrd-skip / rdpenalty=0 / psy-rd=2.00 / psy-rdoq=1.00 / no-rd-refine / no-lossless / cbqpoffs=0 / crqpoffs=0 / rc=crf / crf=20.5 / qcomp=0.60 / qpstep=4 / stats-write=0 / stats-read=0 / vbv-maxrate=50000 / vbv-bufsize=50000 / vbv-init=0.9 / crf-max=0.0 / crf-min=0.0 / ipratio=1.40 / pbratio=1.30 / aq-mode=3 / aq-strength=0.80 / no-cutree / zone-count=0 / no-strict-cbr / qg-size=32 / no-rc-grain / qpmax=69 / qpmin=0 / no-const-vbv / sar=1 / overscan=0 / videoformat=5 / range=0 / colorprim=2 / transfer=2 / colormatrix=2 / chromaloc=0 / display-window=0 / max-cll=0,0 / min-luma=0 / max-luma=1023 / log2-max-poc-lsb=8 / vui-timing-info / vui-hrd-info / slices=1 / no-opt-qp-pps / no-opt-ref-list-length-pps / no-multi-pass-opt-rps / scenecut-bias=0.00 / no-opt-cu-delta-qp / aq-motion / no-hdr / no-hdr-opt / no-dhdr10-opt / no-idr-recovery-sei / analysis-reuse-level=5 / scale-factor=0 / refine-intra=0 / refine-inter=0 / refine-mv=0 / no-limit-sao / ctu-info=0 / no-lowpass-dct / refine-mv-type=0 / copy-pic=1 / max-ausize-factor=1.0 / no-dynamic-refine / no-single-sei
Язык : English
Default : Да
Forced : Нет
Цветовой диапазон : Limited

Аудио #1
Идентификатор : 2
Формат : AC-3
Формат/Информация : Audio Coding 3
Коммерческое название : Dolby Digital
Идентификатор кодека : A_AC3
Продолжительность : 53 м. 7 с.
Вид битрейта : Постоянный
Битрейт : 448 Кбит/сек
Каналы : 6 каналов
Channel layout : L R C LFE Ls Rs
Частота : 48,0 КГц
Частота кадров : 31,250 кадров/сек (1536 SPF)
Битовая глубина : 16 бит
Метод сжатия : С потерями
Размер потока : 170 Мбайт (5%)
Заголовок : DUB | Blu-ray 4K EUR
Язык : Russian
ServiceKind/String : Complete Main
Default : Да
Forced : Нет

Аудио #2
Идентификатор : 3
Формат : AC-3
Формат/Информация : Audio Coding 3
Коммерческое название : Dolby Digital
Идентификатор кодека : A_AC3
Продолжительность : 53 м. 7 с.
Вид битрейта : Постоянный
Битрейт : 640 Кбит/сек
Каналы : 6 каналов
Channel layout : L R C LFE Ls Rs
Частота : 48,0 КГц
Частота кадров : 31,250 кадров/сек (1536 SPF)
Битовая глубина : 16 бит
Метод сжатия : С потерями
Размер потока : 243 Мбайт (7%)
Заголовок : MVO | Novamedia
Язык : Russian
ServiceKind/String : Complete Main
Default : Нет
Forced : Нет

Аудио #3
Идентификатор : 4
Формат : AC-3
Формат/Информация : Audio Coding 3
Коммерческое название : Dolby Digital
Идентификатор кодека : A_AC3
Продолжительность : 53 м. 7 с.
Вид битрейта : Постоянный
Битрейт : 640 Кбит/сек
Каналы : 6 каналов
Channel layout : L R C LFE Ls Rs
Частота : 48,0 КГц
Частота кадров : 31,250 кадров/сек (1536 SPF)
Битовая глубина : 16 бит
Метод сжатия : С потерями
Размер потока : 243 Мбайт (7%)
Заголовок : MVO | FocusStudio
Язык : Russian
ServiceKind/String : Complete Main
Default : Нет
Forced : Нет

Аудио #4
Идентификатор : 5
Формат : AC-3
Формат/Информация : Audio Coding 3
Коммерческое название : Dolby Digital
Идентификатор кодека : A_AC3
Продолжительность : 53 м. 7 с.
Вид битрейта : Постоянный
Битрейт : 640 Кбит/сек
Каналы : 6 каналов
Channel layout : L R C LFE Ls Rs
Частота : 48,0 КГц
Частота кадров : 31,250 кадров/сек (1536 SPF)
Битовая глубина : 16 бит
Метод сжатия : С потерями
Размер потока : 243 Мбайт (7%)
Заголовок : MVO | AlexFilm
Язык : Russian
ServiceKind/String : Complete Main
Default : Нет
Forced : Нет

Аудио #5
Идентификатор : 6
Формат : AC-3
Формат/Информация : Audio Coding 3
Коммерческое название : Dolby Digital
Идентификатор кодека : A_AC3
Продолжительность : 53 м. 7 с.
Вид битрейта : Постоянный
Битрейт : 640 Кбит/сек
Каналы : 6 каналов
Channel layout : L R C LFE Ls Rs
Частота : 48,0 КГц
Частота кадров : 31,250 кадров/сек (1536 SPF)
Битовая глубина : 16 бит
Метод сжатия : С потерями
Размер потока : 243 Мбайт (7%)
Заголовок : MVO | LostFilm
Язык : Russian
ServiceKind/String : Complete Main
Default : Нет
Forced : Нет

Аудио #6
Идентификатор : 7
Формат : AC-3
Формат/Информация : Audio Coding 3
Коммерческое название : Dolby Digital
Идентификатор кодека : A_AC3
Продолжительность : 53 м. 7 с.
Вид битрейта : Постоянный
Битрейт : 640 Кбит/сек
Каналы : 6 каналов
Channel layout : L R C LFE Ls Rs
Частота : 48,0 КГц
Частота кадров : 31,250 кадров/сек (1536 SPF)
Битовая глубина : 16 бит
Метод сжатия : С потерями
Размер потока : 243 Мбайт (7%)
Заголовок : MVO | HDrezka Studio
Язык : Russian
ServiceKind/String : Complete Main
Default : Нет
Forced : Нет

Аудио #7
Идентификатор : 8
Формат : AC-3
Формат/Информация : Audio Coding 3
Коммерческое название : Dolby Digital
Идентификатор кодека : A_AC3
Продолжительность : 53 м. 7 с.
Вид битрейта : Постоянный
Битрейт : 640 Кбит/сек
Каналы : 6 каналов
Channel layout : L R C LFE Ls Rs
Частота : 48,0 КГц
Частота кадров : 31,250 кадров/сек (1536 SPF)
Битовая глубина : 16 бит
Метод сжатия : С потерями
Размер потока : 243 Мбайт (7%)
Заголовок : MVO | AMS
Язык : Russian
ServiceKind/String : Complete Main
Default : Нет
Forced : Нет

Аудио #8
Идентификатор : 9
Формат : AC-3
Формат/Информация : Audio Coding 3
Коммерческое название : Dolby Digital
Идентификатор кодека : A_AC3
Продолжительность : 53 м. 7 с.
Вид битрейта : Постоянный
Битрейт : 640 Кбит/сек
Каналы : 6 каналов
Channel layout : L R C LFE Ls Rs
Частота : 48,0 КГц
Частота кадров : 31,250 кадров/сек (1536 SPF)
Битовая глубина : 16 бит
Метод сжатия : С потерями
Размер потока : 243 Мбайт (7%)
Заголовок : MVO | FOX
Язык : Russian
ServiceKind/String : Complete Main
Default : Нет
Forced : Нет

Аудио #9
Идентификатор : 10
Формат : AC-3
Формат/Информация : Audio Coding 3
Коммерческое название : Dolby Digital
Идентификатор кодека : A_AC3
Продолжительность : 53 м. 7 с.
Вид битрейта : Постоянный
Битрейт : 640 Кбит/сек
Каналы : 6 каналов
Channel layout : L R C LFE Ls Rs
Частота : 48,0 КГц
Частота кадров : 31,250 кадров/сек (1536 SPF)
Битовая глубина : 16 бит
Метод сжатия : С потерями
Размер потока : 243 Мбайт (7%)
Заголовок : Original
Язык : English
ServiceKind/String : Complete Main
Default : Нет
Forced : Нет

Текст #1
Идентификатор : 11
Формат : UTF-8
Идентификатор кодека : S_TEXT/UTF8
Идентификатор кодека/Информация : UTF-8 Plain Text
Продолжительность : 29 м. 55 с.
Битрейт : 0 бит/сек
ElementCount : 5
Размер потока : 206 байт (0%)
Заголовок : Forced
Язык : Russian
Default : Нет
Forced : Нет

Текст #2
Идентификатор : 12
Формат : UTF-8
Идентификатор кодека : S_TEXT/UTF8
Идентификатор кодека/Информация : UTF-8 Plain Text
Продолжительность : 46 м. 24 с.
Битрейт : 61 бит/сек
ElementCount : 433
Размер потока : 20,8 Кбайт (0%)
Заголовок : Full | Blu-ray 4K EUR
Язык : Russian
Default : Нет
Forced : Нет

Текст #3
Идентификатор : 13
Формат : UTF-8
Идентификатор кодека : S_TEXT/UTF8
Идентификатор кодека/Информация : UTF-8 Plain Text
Продолжительность : 50 м. 29 с.
Битрейт : 58 бит/сек
ElementCount : 483
Размер потока : 21,5 Кбайт (0%)
Заголовок : Full | Amedia
Язык : Russian
Default : Нет
Forced : Нет

Текст #4
Идентификатор : 14
Формат : UTF-8
Идентификатор кодека : S_TEXT/UTF8
Идентификатор кодека/Информация : UTF-8 Plain Text
Продолжительность : 3 с. 337 мс.
Битрейт : 124 бит/сек
ElementCount : 2
Размер потока : 52,0 байт (0%)
Заголовок : FORCED
Язык : English
Default : Нет
Forced : Нет

Текст #5
Идентификатор : 15
Формат : UTF-8
Идентификатор кодека : S_TEXT/UTF8
Идентификатор кодека/Информация : UTF-8 Plain Text
Продолжительность : 49 м. 17 с.
Битрейт : 45 бит/сек
ElementCount : 573
Размер потока : 16,5 Кбайт (0%)
Заголовок : Full
Язык : English
Default : Нет
Forced : Нет

Меню
00:00:00.000 : :Chapter 01
00:01:55.949 : :Chapter 02
00:10:57.031 : :Chapter 03
00:18:02.956 : :Chapter 04
00:25:09.174 : :Chapter 05
00:34:44.874 : :Chapter 06
00:42:35.636 : :Chapter 07
00:51:48.730 : :Chapter 08
Cкриншот1 Игра престолов / Game of Thrones (2019) [8 сезон] BDRip 1080p [HEVC] 10 bit от OldGamer (RG HEVC-CLUB)
Загружается...
Cкриншот2 Игра престолов / Game of Thrones (2019) [8 сезон] BDRip 1080p [HEVC] 10 bit от OldGamer (RG HEVC-CLUB)
Загружается...
Cкриншот3 Игра престолов / Game of Thrones (2019) [8 сезон] BDRip 1080p [HEVC] 10 bit от OldGamer (RG HEVC-CLUB)
Загружается...
Cкриншот4 Игра престолов / Game of Thrones (2019) [8 сезон] BDRip 1080p [HEVC] 10 bit от OldGamer (RG HEVC-CLUB)
Загружается...
СэмплТоррентМагнет

Кнопки "Позвать в чате", "Спасибо" и "Пожертвование" доступны только зарегистрированным/авторизованным пользователям!

Поблагодарили: 14
Alex302, alex72, denisptp4, Diman, joker63, korshun, Lab165, mat, NoMaD, pooom, Solee, SYNC80001, Wikkjaz, Херсонец
29.11.2019  17:01:26
0
829
46
27
27.4 ГБ

Добавление нового комментария

Добавление комментариев доступно только зарегистрированным/авторизованным пользователям.