Обложка Хроники хищных городов / Mortal Engines (2018) UHD-BDRip 1080p [HEVC] 10 bit [SDR] от M@kSIMusОбложка Снегоуборщик / Cold Pursuit (2019) BDRip 1080p [HEVC] 10 bit от HANNIBALОбложка Простая просьба / A Simple Favor (2018) BDRip 1080p [HEVC] 8 bit от CthulhuОбложка Павел, апостол Христа / Paul, Apostle of Christ (2018) BDRip 1080p [HEVC] 10 bit от druidblackОбложка Человек-паук: Через вселенные / Spider-Man: Into the Spider-Verse (2018) [Локализованная версия] BDRip 1080p [HEVC] 10 bit от M@kSIMusОбложка Однажды в… Голливуде / Once Upon a Time... in Hollywood (2019) BDRip 1080p [HEVC] 10 bit от HANNIBALОбложка Проклятие Аннабель 3 / Annabelle Comes Home (2019) BDRip 1080p [HEVC] 10 bit от Mr. FoxОбложка Маугли дикой планеты / Terra Willy: Planète inconnue (2019) BDRip 1080p [HEVC] 10 bit от HANNIBALОбложка Первому игроку приготовиться / Ready Player One (2018) BDRip 1080p [HEVC] 10 bit от M@kSIMusОбложка Бамблби / Bumblebee (2018) BDRip 1080p [HEVC] 10 bit от HANNIBAL

Авторизация

Смена пароля

captcha

Регистрация

captcha

🔍 Поиск

Мини-чат

(09:56)OldGamer: NoMaD, с какой радости я что-то кому-то должен?
(09:56)NoMaD: OldGamer, не думаю что он в курсе что такое ключи. В принципе как и большинство тех,кто пробует сам кодировать на пресетах программы
(09:57)NoMaD: OldGamer, в плане совета) Не нужно сразу в бучу лезть!!! Не все же тут такие умные как ты.
(11:47)joker63: OldGamer, ✋
(12:13)OldGamer: joker63, ✋
(14:34)OldGamer: NoMaD, то есть ты ещё будешь мне говорить, что делать и куда лезть? 🤔
(19:47)medium: NoMaD, напишите кто нибудь краткий курс по кодированию (с ключами), я бы помог с релизами 4к
(19:47)OldGamer: medium, уже давно всё написано, было бы желание понимать написанное да не лениться экспериментировать, тестировать и сравнивать
(22:51)medium: OldGamer, скинь ссылку плс, где все написано, конечьно я изучу
(09:47)NoMaD: medium, обратите внимание на раздел Справка
(09:53)NoMaD: medium, помощь с релизами 4К нам не нужна,так как пока до конца кодирование с 4К не доведено до ума - цветопередача сильно отличается от кодирования с обычного ремукса и не в лучшую сторону
(11:29)Холодец_3: NoMaD, Ты за всех не говори Кабанчик.
(11:31)Admin: NoMaD, может он хочет в HDR, а там было бы подходящее устройство...
(12:32)NoMaD: Холодец_3, тогда напиши ему в личку и спроси,Холодечик) Раз сам не знаешь)
(12:33)NoMaD: Admin, HDR делать тоже не резонно - многим потом придётся объяснять что делать,чтобы нормально просмотреть видеофайл с нормальными цветами
(15:35)OldGamer: NoMaD, не надо говорить за всех, это нехорошая привычка. Если человек хочет заниматься 4К - это можно только приветствовать.
(16:32)NoMaD: OldGamer, а это так же как у тебя,тоже есть не хорошая привычка - говорить что тебе не нужно,когда тебя несколько человек уже просят сериал сделать.
(16:38)NoMaD: OldGamer, тем более когда сам начал хвалиться,что у тебя есть возможность на нескольких компьютерах делать. Было бы у меня хотя бы два,так я сам бы сделал
  • Admin
  • alexposad
  • alexxx65
  • andart75
  • Blackman91
  • Jozin z bazin
  • Vitoss6
Онлайн: 7
Отправка сообщений доступно только зарегистрированным/авторизованным пользователям.

Железный человек 3 / Iron Man Three (2013) BDRip 1080p [HEVC] 10 bit от OldGamer (RG HEVC-CLUB)

HEVC
10 bit
Обложка Железный человек 3 / Iron Man Three (2013) BDRip 1080p [HEVC] 10 bit от OldGamer (RG HEVC-CLUB) Год: 2013
Страна: США
Студия: Marvel Studios
Жанр: Фантастика, Боевик, Приключения
Продолжительность: 02:10:32

Режиссер: Шейн Блэк
В ролях: Роберт Дауни мл., Гвинет Пэлтроу, Дон Чидл, Гай Пирс, Ребекка Холл, Джон Фавро, Бен Кингсли, Джеймс Бэдж Дэйл, Стефани Зостак, Пол Беттани

Описание: Когда мир Старка рушится на его глазах по вине неизвестных противников, Тони жаждет найти виновных и свести с ними счеты. Оказавшись в безвыходной ситуации, Старк может рассчитывать только на себя и свою изобретательность, чтобы защитить тех, кто ему дорог. Это становится настоящим испытанием для героя, которому придется не только сражаться с коварным врагом, но и разобраться в себе, чтобы найти ответ на вопрос, который давно его тревожит: что важнее — человек или костюм?


7.478191233
7.2
713261


Формат: MKV
Видео: 1920x800 (2,40:1), 5419 кбит/сек, 0.147 бит/(Пиксели*Кадры), 23,976 (24000/1001) кадра/сек, HEVC (Main 10@L4.1@High) 10 бит
Аудио1: AC3, 6 ch, 640 Kbps -
Русский, Дублированный (Лицензия)

Аудио2: AC3, 6 ch, 640 Kbps -
English, Original

Субтитры: Русские форсированные и полные (SRT), English full (SRT)

Как за пару секунд удалить ненужные аудиодорожки и субтитры (Внимание! После удаления вы не сможете поддержать раздачу)

Медиаинфо
x265 [info]: frame I: 804, Avg QP:17.51 kb/s: 17157.12
x265 [info]: frame P: 32427, Avg QP:18.64 kb/s: 13542.17
x265 [info]: frame B: 154550, Avg QP:20.97 kb/s: 3652.43
x265 [info]: Weighted P-Frames: Y:10.8% UV:8.7%
x265 [info]: Weighted B-Frames: Y:11.9% UV:8.3%
x265 [info]: consecutive B-frames: 7.3% 5.4% 7.7% 22.0% 10.3% 16.3% 7.3% 7.7% 4.4% 3.5% 3.0% 2.4% 1.4% 1.5%
x265 [info]: encoded 187781 frames in 145510.23s (1.29 fps), 5418.07 kb/s, Avg QP:20.55

Формат : Matroska
Версия формата : Version 4
Размер файла : 6,11 Гбайт
Продолжительность : 2 ч. 10 м.
Общий поток : 6701 Кбит/сек
Название фильма : Iron.Man.3.2013.BDRemux.1080p
Дата кодирования : UTC 2019-11-29 18:36:41
Программа кодирования : mkvmerge v40.0.0 ('Old Town Road + Pony') 64-bit
Библиотека кодирования : libebml v1.3.9 + libmatroska v1.5.2

Видео
Идентификатор : 1
Формат : HEVC
Формат/Информация : High Efficiency Video Coding
Профиль формата : Main 10@L4.1@High
Идентификатор кодека : V_MPEGH/ISO/HEVC
Продолжительность : 2 ч. 10 м.
Битрейт : 5419 Кбит/сек
Ширина : 1920 пикселей
Высота : 800 пикселей
Соотношение сторон : 2,40:1
Режим частоты кадров : Постоянный
Частота кадров : 23,976 (24000/1001) кадра/сек
Цветовое пространство : YUV
Субдискретизация насыщенности : 4:2:0
Битовая глубина : 10 бит
Бит/(Пиксели*Кадры) : 0.147
Размер потока : 4,94 Гбайт (81%)
Заголовок : Iron Man 3 / Rip by OldGamer
Библиотека кодирования : x265 2.9+15-81373aab81df:[Windows][GCC 8.2.0][64 bit] 10bit
Настройки программы : cpuid=1111039 / frame-threads=3 / numa-pools=12 / wpp / no-pmode / no-pme / no-psnr / no-ssim / log-level=2 / input-csp=1 / input-res=1920x800 / interlace=0 / total-frames=187781 / level-idc=41 / high-tier=1 / uhd-bd=0 / ref=5 / no-allow-non-conformance / no-repeat-headers / annexb / no-aud / no-hrd / info / hash=0 / no-temporal-layers / open-gop / min-keyint=23 / keyint=240 / gop-lookahead=0 / bframes=13 / b-adapt=2 / b-pyramid / bframe-bias=0 / rc-lookahead=80 / lookahead-slices=0 / scenecut=40 / radl=0 / no-splice / no-intra-refresh / ctu=64 / min-cu-size=8 / rect / amp / max-tu-size=32 / tu-inter-depth=4 / tu-intra-depth=4 / limit-tu=1 / rdoq-level=2 / dynamic-rd=0.00 / no-ssim-rd / signhide / no-tskip / nr-intra=0 / nr-inter=0 / no-constrained-intra / no-strong-intra-smoothing / max-merge=5 / limit-refs=3 / limit-modes / me=3 / subme=7 / merange=57 / temporal-mvp / weightp / weightb / no-analyze-src-pics / deblock=-3:-3 / no-sao / no-sao-non-deblock / rd=6 / no-early-skip / rskip / no-fast-intra / no-tskip-fast / no-cu-lossless / b-intra / no-splitrd-skip / rdpenalty=0 / psy-rd=2.00 / psy-rdoq=1.00 / no-rd-refine / no-lossless / cbqpoffs=0 / crqpoffs=0 / rc=crf / crf=19.7 / qcomp=0.80 / qpstep=4 / stats-write=0 / stats-read=0 / vbv-maxrate=50000 / vbv-bufsize=50000 / vbv-init=0.9 / crf-max=0.0 / crf-min=0.0 / ipratio=1.40 / pbratio=1.30 / aq-mode=2 / aq-strength=0.80 / no-cutree / zone-count=1 / zones: / start-frame=175911 / end-frame=186038 / qp=35 / no-strict-cbr / qg-size=32 / no-rc-grain / qpmax=69 / qpmin=0 / no-const-vbv / sar=1 / overscan=0 / videoformat=5 / range=0 / colorprim=2 / transfer=2 / colormatrix=2 / chromaloc=0 / display-window=0 / max-cll=0,0 / min-luma=0 / max-luma=1023 / log2-max-poc-lsb=8 / vui-timing-info / vui-hrd-info / slices=1 / no-opt-qp-pps / no-opt-ref-list-length-pps / no-multi-pass-opt-rps / scenecut-bias=0.00 / no-opt-cu-delta-qp / no-aq-motion / no-hdr / no-hdr-opt / no-dhdr10-opt / no-idr-recovery-sei / analysis-reuse-level=5 / scale-factor=0 / refine-intra=0 / refine-inter=0 / refine-mv=0 / no-limit-sao / ctu-info=0 / no-lowpass-dct / refine-mv-type=0 / copy-pic=1 / max-ausize-factor=1.0 / no-dynamic-refine / no-single-sei
Язык : English
Default : Да
Forced : Нет

Аудио #1
Идентификатор : 2
Формат : AC-3
Формат/Информация : Audio Coding 3
Коммерческое название : Dolby Digital
Идентификатор кодека : A_AC3
Продолжительность : 2 ч. 10 м.
Вид битрейта : Постоянный
Битрейт : 640 Кбит/сек
Каналы : 6 каналов
Channel layout : L R C LFE Ls Rs
Частота : 48,0 КГц
Частота кадров : 31,250 кадров/сек (1536 SPF)
Битовая глубина : 16 бит
Метод сжатия : С потерями
Размер потока : 598 Мбайт (10%)
Заголовок : Dub
Язык : Russian
ServiceKind/String : Complete Main
Default : Да
Forced : Нет

Аудио #2
Идентификатор : 3
Формат : AC-3
Формат/Информация : Audio Coding 3
Коммерческое название : Dolby Digital
Идентификатор кодека : A_AC3
Продолжительность : 2 ч. 10 м.
Вид битрейта : Постоянный
Битрейт : 640 Кбит/сек
Каналы : 6 каналов
Channel layout : L R C LFE Ls Rs
Частота : 48,0 КГц
Частота кадров : 31,250 кадров/сек (1536 SPF)
Битовая глубина : 16 бит
Метод сжатия : С потерями
Размер потока : 598 Мбайт (10%)
Язык : English
ServiceKind/String : Complete Main
Default : Нет
Forced : Нет

Текст #1
Идентификатор : 4
Формат : UTF-8
Идентификатор кодека : S_TEXT/UTF8
Идентификатор кодека/Информация : UTF-8 Plain Text
Продолжительность : 2 ч. 9 м.
Битрейт : 0 бит/сек
ElementCount : 9
Размер потока : 320 байт (0%)
Заголовок : Forced
Язык : Russian
Default : Нет
Forced : Нет

Текст #2
Идентификатор : 5
Формат : UTF-8
Идентификатор кодека : S_TEXT/UTF8
Идентификатор кодека/Информация : UTF-8 Plain Text
Продолжительность : 2 ч. 10 м.
Битрейт : 77 бит/сек
ElementCount : 1728
Размер потока : 73,8 Кбайт (0%)
Заголовок : Full
Язык : Russian
Default : Нет
Forced : Нет

Текст #3
Идентификатор : 6
Формат : UTF-8
Идентификатор кодека : S_TEXT/UTF8
Идентификатор кодека/Информация : UTF-8 Plain Text
Продолжительность : 2 ч. 10 м.
Битрейт : 61 бит/сек
ElementCount : 1739
Размер потока : 58,4 Кбайт (0%)
Заголовок : Full
Язык : English
Default : Нет
Forced : Нет

Меню
00:00:00.000 : en:(01)00:00:00:000
00:04:52.750 : en:(02)00:04:52:750
00:07:55.433 : en:(03)00:07:55:433
00:12:12.440 : en:(04)00:12:12:440
00:19:04.101 : en:(05)00:19:04:101
00:23:47.884 : en:(06)00:23:47:884
00:29:47.702 : en:(07)00:29:47:702
00:39:46.384 : en:(08)00:39:46:384
00:45:56.044 : en:(09)00:45:56:044
00:59:19.639 : en:(10)00:59:19:639
01:01:56.921 : en:(11)01:01:56:921
01:09:24.451 : en:(12)01:09:24:451
01:18:41.508 : en:(13)01:18:41:508
01:23:52.944 : en:(14)01:23:52:944
01:37:55.995 : en:(15)01:37:55:995
01:56:18.304 : en:(16)01:56:18:304
01:59:38.754 : en:(17)01:59:38:754
02:10:32.616 : en:(18)02:10:32:616
Cкриншот1 Железный человек 3 / Iron Man Three (2013) BDRip 1080p [HEVC] 10 bit от OldGamer (RG HEVC-CLUB)
Загружается...
Cкриншот2 Железный человек 3 / Iron Man Three (2013) BDRip 1080p [HEVC] 10 bit от OldGamer (RG HEVC-CLUB)
Загружается...
Cкриншот3 Железный человек 3 / Iron Man Three (2013) BDRip 1080p [HEVC] 10 bit от OldGamer (RG HEVC-CLUB)
Загружается...
Cкриншот4 Железный человек 3 / Iron Man Three (2013) BDRip 1080p [HEVC] 10 bit от OldGamer (RG HEVC-CLUB)
Загружается...
СэмплТоррентМагнет

Кнопки "Позвать в чате", "Спасибо" и "Пожертвование" доступны только зарегистрированным/авторизованным пользователям!

Поблагодарили: 9
375509, alexyak, Brooklyn, LastSurviv0r, mafo2, MIGRANT, NoMaD, Nuclear70, Холодец_3
29.11.2019  22:03:09
0
41
0
0
6.11 ГБ

Добавление нового комментария

Добавление комментариев доступно только зарегистрированным/авторизованным пользователям.