Обложка Идеальная западня / Welcome Home (2018) BDRip 1080p [HEVC] 10 bit от D҉O҉N҉A҉T҉҉1K҉Обложка Хроники хищных городов / Mortal Engines (2018) UHD-BDRip 1080p [HEVC] 10 bit [SDR] от M@kSIMusОбложка Аладдин / Aladdin (2019) BDRip 1080p [HEVC] 10 bit от HANNIBALОбложка Можно только представить / I Can Only Imagine (2018) BDRip 1080p [HEVC] 10 bit от M@kSIMusОбложка Папа-мама гусь / Duck Duck Goose (2018) BDRip 1080p [HEVC] 10 bit от МичманОбложка Angry Birds: Дилогия / Angry Birds: Dilogy (2016-2019) BDRip 1080p [HEVC] 10 bit от M@kSIMusОбложка Астерикс и тайное зелье / Astérix: Le secret de la potion magique (2018) BDRip 1080p [HEVC] 10 bit от Mr. FoxОбложка Коллекторы / The Debt Collector (2018) BDRip 1080p [HEVC] 10 bit от M@kSIMusОбложка Первому игроку приготовиться / Ready Player One (2018) BDRip 1080p [HEVC] 10 bit от M@kSIMusОбложка Покемон. Детектив Пикачу / Pokémon Detective Pikachu (2019) BDRip 1080p [HEVC] 10 bit от HANNIBAL

Авторизация

Смена пароля

captcha

Регистрация

captcha

🔍 Поиск

Мини-чат

(11:47)joker63: OldGamer, ✋
(12:13)OldGamer: joker63, ✋
(14:34)OldGamer: NoMaD, то есть ты ещё будешь мне говорить, что делать и куда лезть? 🤔
(19:47)medium: NoMaD, напишите кто нибудь краткий курс по кодированию (с ключами), я бы помог с релизами 4к
(19:47)OldGamer: medium, уже давно всё написано, было бы желание понимать написанное да не лениться экспериментировать, тестировать и сравнивать
(22:51)medium: OldGamer, скинь ссылку плс, где все написано, конечьно я изучу
(09:47)NoMaD: medium, обратите внимание на раздел Справка
(09:53)NoMaD: medium, помощь с релизами 4К нам не нужна,так как пока до конца кодирование с 4К не доведено до ума - цветопередача сильно отличается от кодирования с обычного ремукса и не в лучшую сторону
(11:29)Холодец_3: NoMaD, Ты за всех не говори Кабанчик.
(11:31)Admin: NoMaD, может он хочет в HDR, а там было бы подходящее устройство...
(12:32)NoMaD: Холодец_3, тогда напиши ему в личку и спроси,Холодечик) Раз сам не знаешь)
(12:33)NoMaD: Admin, HDR делать тоже не резонно - многим потом придётся объяснять что делать,чтобы нормально просмотреть видеофайл с нормальными цветами
(15:35)OldGamer: NoMaD, не надо говорить за всех, это нехорошая привычка. Если человек хочет заниматься 4К - это можно только приветствовать.
(16:32)NoMaD: OldGamer, а это так же как у тебя,тоже есть не хорошая привычка - говорить что тебе не нужно,когда тебя несколько человек уже просят сериал сделать.
(16:38)NoMaD: OldGamer, тем более когда сам начал хвалиться,что у тебя есть возможность на нескольких компьютерах делать. Было бы у меня хотя бы два,так я сам бы сделал
(17:27)Admin: NoMaD, заплати максику, он тебе сделает
(17:33)NoMaD: Admin, штамповки Максика мне не нужны,до сих пор себя за это ругаю
  • AB
  • cherednicov
  • MIGRANT
  • NoMaD
  • ODIS
  • PavlikRavlik
  • Strelych
Онлайн: 7
Отправка сообщений доступно только зарегистрированным/авторизованным пользователям.

Angry Birds: Дилогия / Angry Birds: Dilogy (2016-2019) BDRip 1080p [HEVC] 10 bit от M@kSIMus

HEVC
10 bit
Обложка Angry Birds: Дилогия / Angry Birds: Dilogy (2016-2019) BDRip 1080p [HEVC] 10 bit от M@kSIMus Год: 2016-2019
Страна: США, Финляндия
Студия: Columbia Pictures, LStar Capital, Rovio Entertainment, Rovio Animation, Sony Pictures Animation
Жанр: Мультфильм, Комедия, Приключения, Семейный
1. Angry Birds в кино / Angry Birds (2016) BDRip 1080p [HEVC] 10 bit от M@kSIMus
HEVC
10 bit
Обложка Angry Birds в кино / Angry Birds (2016) BDRip 1080p [HEVC] 10 bit от M@kSIMus Год: 2016
Страна: Финляндия, США
Студия: Columbia Pictures, LStar Capital, Rovio Entertainment
Жанр: Мультфильм, Комедия, Приключения, Семейный
Продолжительность: 01:37:14

Режиссер: Клэй Кэйтис, Фергал Рейли
В ролях: Джейсон Судейкис, Джош Гад, Дэнни Макбрайд, Майя Рудольф, Билл Хейдер, Питер Динклэйдж, Шон Пенн, Кигэн-Майкл Ки, Кейт МакКиннон, Тони Хейл

Описание: Фильм расскажет о том, как началось знаменитое противостояние птичек и свинок, персонажей популярной компьютерной игры, а также раскроет некоторые секреты любимых героев.


6.25634722
6.3
73710


Формат: MKV
Видео: 1920x1038, 7731 Kbps
Аудио1: AC3, 6 ch, 640 Kbps -
Русский, Дублированный (Лицензия)

Аудио2: AC3, 6 ch, 640 Kbps -
Английский, Оригинал

Субтитры: Русские (форсированные, полные), английские

Как за пару секунд удалить ненужные аудиодорожки и субтитры (Внимание! После удаления вы не сможете поддержать раздачу)

Медиаинфо
Формат : Matroska
Версия формата : Version 4
Размер файла : 6,12 Гбайт
Продолжительность : 1 ч. 37 м.
Общий поток : 9014 Кбит/сек
Название фильма : The Angry Birds Movie (2016) Encoded_by_M@kSIMus
Дата кодирования : UTC 2019-11-12 13:10:40
Программа кодирования : mkvmerge v40.0.0 ('Old Town Road + Pony') 64-bit
Библиотека кодирования : libebml v1.3.9 + libmatroska v1.5.2
Обложка : Yes
Attachments : cover1.jpg

Видео
Идентификатор : 1
Формат : HEVC
Формат/Информация : High Efficiency Video Coding
Профиль формата : Main 10@L4.1@High
Идентификатор кодека : V_MPEGH/ISO/HEVC
Продолжительность : 1 ч. 37 м.
Битрейт : 7731 Кбит/сек
Ширина : 1920 пикселей
Высота : 1038 пикселей
Соотношение сторон : 1,85:1
Режим частоты кадров : Постоянный
Частота кадров : 23,976 (24000/1001) кадра/сек
Цветовое пространство : YUV
Субдискретизация насыщенности : 4:2:0
Битовая глубина : 10 бит
Бит/(Пиксели*Кадры) : 0.162
Размер потока : 5,25 Гбайт (86%)
Библиотека кодирования : x265 3.2+5-354901970679:[Windows][clang 8.0.1][64 bit] 10bit
Настройки программы : cpuid=1049583 / frame-threads=5 / numa-pools=4 / wpp / no-pmode / no-pme / no-psnr / no-ssim / log-level=3 / input-csp=1 / input-res=1920x1038 / interlace=0 / total-frames=0 / level-idc=41 / high-tier=1 / uhd-bd=0 / ref=4 / allow-non-conformance / no-repeat-headers / annexb / no-aud / no-hrd / info / hash=0 / no-temporal-layers / open-gop / min-keyint=24 / keyint=240 / gop-lookahead=0 / bframes=12 / b-adapt=2 / b-pyramid / bframe-bias=0 / rc-lookahead=40 / lookahead-slices=6 / scenecut=40 / radl=0 / no-splice / no-intra-refresh / ctu=32 / min-cu-size=8 / no-rect / no-amp / max-tu-size=32 / tu-inter-depth=4 / tu-intra-depth=4 / limit-tu=1 / rdoq-level=1 / dynamic-rd=0.00 / no-ssim-rd / signhide / no-tskip / nr-intra=0 / nr-inter=0 / no-constrained-intra / no-strong-intra-smoothing / max-merge=5 / limit-refs=1 / no-limit-modes / me=3 / subme=7 / merange=57 / temporal-mvp / no-frame-dup / no-hme / weightp / no-weightb / no-analyze-src-pics / deblock=-3:-3 / no-sao / no-sao-non-deblock / rd=3 / selective-sao=0 / early-skip / no-rskip / no-fast-intra / no-tskip-fast / no-cu-lossless / b-intra / no-splitrd-skip / rdpenalty=0 / psy-rd=2.00 / psy-rdoq=1.00 / no-rd-refine / no-lossless / cbqpoffs=0 / crqpoffs=0 / rc=crf / crf=20.0 / qcomp=0.60 / qpstep=4 / stats-write=0 / stats-read=0 / vbv-maxrate=50000 / vbv-bufsize=50000 / vbv-init=0.9 / crf-max=0.0 / crf-min=0.0 / ipratio=1.40 / pbratio=1.30 / aq-mode=3 / aq-strength=1.00 / no-cutree / zone-count=0 / no-strict-cbr / qg-size=32 / no-rc-grain / qpmax=69 / qpmin=0 / no-const-vbv / sar=1 / overscan=0 / videoformat=5 / range=0 / colorprim=1 / transfer=1 / colormatrix=1 / chromaloc=0 / display-window=0 / cll=0,0 / min-luma=0 / max-luma=1023 / log2-max-poc-lsb=8 / vui-timing-info / vui-hrd-info / slices=1 / no-opt-qp-pps / no-opt-ref-list-length-pps / no-multi-pass-opt-rps / scenecut-bias=0.05 / no-opt-cu-delta-qp / no-aq-motion / no-hdr / no-hdr-opt / no-dhdr10-opt / no-idr-recovery-sei / analysis-reuse-level=5 / scale-factor=0 / refine-intra=0 / refine-inter=0 / refine-mv=1 / refine-ctu-distortion=0 / no-limit-sao / ctu-info=0 / no-lowpass-dct / refine-analysis-type=0 / copy-pic=1 / max-ausize-factor=1.0 / no-dynamic-refine / no-single-sei / no-hevc-aq / no-svt / no-field / qp-adaptation-range=1.00
Язык : English
Default : Да
Forced : Нет
Цветовой диапазон : Limited
Основные цвета : BT.709
Характеристики трансфера : BT.709
Коэффициенты матрицы : BT.709

Аудио #1
Идентификатор : 2
Формат : AC-3
Формат/Информация : Audio Coding 3
Коммерческое название : Dolby Digital
Идентификатор кодека : A_AC3
Продолжительность : 1 ч. 37 м.
Вид битрейта : Постоянный
Битрейт : 640 Кбит/сек
Каналы : 6 каналов
ChannelLayout : L R C LFE Ls Rs
Частота : 48,0 КГц
Частота кадров : 31,250 кадров/сек (1536 SPF)
Битовая глубина : 16 бит
Метод сжатия : С потерями
Размер потока : 445 Мбайт (7%)
Заголовок : Дубляж
Язык : Russian
Default : Да
Forced : Нет

Аудио #2
Идентификатор : 3
Формат : AC-3
Формат/Информация : Audio Coding 3
Коммерческое название : Dolby Digital
Идентификатор кодека : A_AC3
Продолжительность : 1 ч. 37 м.
Вид битрейта : Постоянный
Битрейт : 640 Кбит/сек
Каналы : 6 каналов
ChannelLayout : L R C LFE Ls Rs
Частота : 48,0 КГц
Частота кадров : 31,250 кадров/сек (1536 SPF)
Битовая глубина : 16 бит
Метод сжатия : С потерями
Размер потока : 445 Мбайт (7%)
Заголовок : Оригинал
Язык : English
Default : Нет
Forced : Нет

Текст #1
Идентификатор : 4
Формат : UTF-8
Идентификатор кодека : S_TEXT/UTF8
Идентификатор кодека/Информация : UTF-8 Plain Text
Продолжительность : 1 ч. 25 м.
Битрейт : 2 бит/сек
ElementCount : 54
Размер потока : 1,71 Кбайт (0%)
Заголовок : Forced
Язык : Russian
Default : Да
Forced : Да

Текст #2
Идентификатор : 5
Формат : UTF-8
Идентификатор кодека : S_TEXT/UTF8
Идентификатор кодека/Информация : UTF-8 Plain Text
Продолжительность : 1 ч. 29 м.
Битрейт : 99 бит/сек
ElementCount : 1579
Размер потока : 65,1 Кбайт (0%)
Заголовок : Full
Язык : Russian
Default : Нет
Forced : Нет

Текст #3
Идентификатор : 6
Формат : UTF-8
Идентификатор кодека : S_TEXT/UTF8
Идентификатор кодека/Информация : UTF-8 Plain Text
Продолжительность : 1 ч. 29 м.
Битрейт : 64 бит/сек
ElementCount : 1518
Размер потока : 42,0 Кбайт (0%)
Заголовок : Full
Язык : English
Default : Нет
Forced : Нет

Меню
00:00:00.000 : :00:00:00.000
00:07:05.091 : :00:07:05.091
00:13:38.109 : :00:13:38.109
00:20:22.638 : :00:20:22.638
00:25:38.620 : :00:25:38.620
00:32:57.392 : :00:32:57.392
00:38:34.812 : :00:38:34.812
00:41:36.327 : :00:41:36.327
00:47:12.955 : :00:47:12.955
00:52:04.288 : :00:52:04.288
00:56:07.698 : :00:56:07.698
00:59:08.712 : :00:59:08.712
01:03:43.319 : :01:03:43.319
01:11:45.801 : :01:11:45.801
01:18:55.522 : :01:18:55.522
01:23:54.821 : :01:23:54.821
Cкриншот1 Angry Birds в кино / Angry Birds (2016) BDRip 1080p [HEVC] 10 bit от M@kSIMus
Загружается...
Cкриншот2 Angry Birds в кино / Angry Birds (2016) BDRip 1080p [HEVC] 10 bit от M@kSIMus
Загружается...
Cкриншот3 Angry Birds в кино / Angry Birds (2016) BDRip 1080p [HEVC] 10 bit от M@kSIMus
Загружается...
Cкриншот4 Angry Birds в кино / Angry Birds (2016) BDRip 1080p [HEVC] 10 bit от M@kSIMus
Загружается...
Сэмпл
2. Angry Birds 2 в кино / The Angry Birds Movie 2 (2019) BDRip 1080p [HEVC] 10 bit от M@kSIMus
HEVC
10 bit
Обложка Angry Birds 2 в кино / The Angry Birds Movie 2 (2019) BDRip 1080p [HEVC] 10 bit от M@kSIMus Год: 2019
Страна: США, Финляндия
Студия: Rovio Animation, Sony Pictures Animation
Жанр: Мультфильм, Комедия, Приключения, Семейный
Продолжительность: 01:36:47

Режиссер: Туроп Ван Орман, Джон Райс
В ролях: Джейсон Судейкис, Джош Гад, Лесли Джонс, Билл Хейдер, Рэйчел Блум, Аквафина, Стерлинг К. Браун, Эухенио Дербес, Тиффани Хэддиш, Дэнни Макбрайд

Описание: Острова птиц и зелёных свиней находятся в режиме ленивой перестрелки, когда у них появляется новый враг — Зета, предводительница обитателей третьего, ледяного острова. Ей до чёртиков надоело жить в вечной мерзлоте, поэтому злодейка разрабатывает коварный план по захвату соседних тропических островов. Птицы и свиньи объединяются против внезапной угрозы, а в это время три пушистых птенчика, играя на берегу, случайно отправляют в океанское плавание три яйца.


6.5426281
6.4
9897


Формат: MKV
Видео: 1920x1036, 8855 Kbps
Аудио1: AC3, 6 ch, 384 Kbps -
Русский, Дублированный (iTunes)

Аудио2: AC3, 6 ch, 640 Kbps -
Английский, Оригинал

Субтитры: Русские (форсированные, полные), английские

Как за пару секунд удалить ненужные аудиодорожки и субтитры (Внимание! После удаления вы не сможете поддержать раздачу)

Медиаинфо
Формат : Matroska
Версия формата : Version 4
Размер файла : 6,68 Гбайт
Продолжительность : 1 ч. 36 м.
Общий поток : 9882 Кбит/сек
Название фильма : The Angry Birds Movie 2 (2019) Encoded_by_M@kSIMus
Дата кодирования : UTC 2019-11-13 12:46:24
Программа кодирования : mkvmerge v40.0.0 ('Old Town Road + Pony') 64-bit
Библиотека кодирования : libebml v1.3.9 + libmatroska v1.5.2
Обложка : Yes
Attachments : cover2.jpg

Видео
Идентификатор : 1
Формат : HEVC
Формат/Информация : High Efficiency Video Coding
Профиль формата : Main 10@L4.1@High
Идентификатор кодека : V_MPEGH/ISO/HEVC
Продолжительность : 1 ч. 36 м.
Битрейт : 8855 Кбит/сек
Ширина : 1920 пикселей
Высота : 1036 пикселей
Соотношение сторон : 1,85:1
Режим частоты кадров : Постоянный
Частота кадров : 23,976 (24000/1001) кадра/сек
Цветовое пространство : YUV
Субдискретизация насыщенности : 4:2:0
Битовая глубина : 10 бит
Бит/(Пиксели*Кадры) : 0.186
Размер потока : 5,99 Гбайт (90%)
Библиотека кодирования : x265 3.2+5-354901970679:[Windows][clang 8.0.1][64 bit] 10bit
Настройки программы : cpuid=1049583 / frame-threads=5 / numa-pools=4 / wpp / no-pmode / no-pme / no-psnr / no-ssim / log-level=3 / input-csp=1 / input-res=1920x1036 / interlace=0 / total-frames=0 / level-idc=41 / high-tier=1 / uhd-bd=0 / ref=4 / allow-non-conformance / no-repeat-headers / annexb / no-aud / no-hrd / info / hash=0 / no-temporal-layers / open-gop / min-keyint=24 / keyint=240 / gop-lookahead=0 / bframes=12 / b-adapt=2 / b-pyramid / bframe-bias=0 / rc-lookahead=40 / lookahead-slices=6 / scenecut=40 / radl=0 / no-splice / no-intra-refresh / ctu=32 / min-cu-size=8 / no-rect / no-amp / max-tu-size=32 / tu-inter-depth=4 / tu-intra-depth=4 / limit-tu=1 / rdoq-level=1 / dynamic-rd=0.00 / no-ssim-rd / signhide / no-tskip / nr-intra=0 / nr-inter=0 / no-constrained-intra / no-strong-intra-smoothing / max-merge=5 / limit-refs=1 / no-limit-modes / me=3 / subme=7 / merange=57 / temporal-mvp / no-frame-dup / no-hme / weightp / no-weightb / no-analyze-src-pics / deblock=-3:-3 / no-sao / no-sao-non-deblock / rd=3 / selective-sao=0 / early-skip / no-rskip / no-fast-intra / no-tskip-fast / no-cu-lossless / b-intra / no-splitrd-skip / rdpenalty=0 / psy-rd=2.00 / psy-rdoq=1.00 / no-rd-refine / no-lossless / cbqpoffs=0 / crqpoffs=0 / rc=crf / crf=20.0 / qcomp=0.60 / qpstep=4 / stats-write=0 / stats-read=0 / vbv-maxrate=50000 / vbv-bufsize=50000 / vbv-init=0.9 / crf-max=0.0 / crf-min=0.0 / ipratio=1.40 / pbratio=1.30 / aq-mode=3 / aq-strength=1.00 / no-cutree / zone-count=0 / no-strict-cbr / qg-size=32 / no-rc-grain / qpmax=69 / qpmin=0 / no-const-vbv / sar=1 / overscan=0 / videoformat=5 / range=0 / colorprim=2 / transfer=2 / colormatrix=2 / chromaloc=0 / display-window=0 / cll=0,0 / min-luma=0 / max-luma=1023 / log2-max-poc-lsb=8 / vui-timing-info / vui-hrd-info / slices=1 / no-opt-qp-pps / no-opt-ref-list-length-pps / no-multi-pass-opt-rps / scenecut-bias=0.05 / no-opt-cu-delta-qp / no-aq-motion / no-hdr / no-hdr-opt / no-dhdr10-opt / no-idr-recovery-sei / analysis-reuse-level=5 / scale-factor=0 / refine-intra=0 / refine-inter=0 / refine-mv=1 / refine-ctu-distortion=0 / no-limit-sao / ctu-info=0 / no-lowpass-dct / refine-analysis-type=0 / copy-pic=1 / max-ausize-factor=1.0 / no-dynamic-refine / no-single-sei / no-hevc-aq / no-svt / no-field / qp-adaptation-range=1.00
Язык : English
Default : Да
Forced : Нет
Цветовой диапазон : Limited

Аудио #1
Идентификатор : 2
Формат : AC-3
Формат/Информация : Audio Coding 3
Коммерческое название : Dolby Digital
Идентификатор кодека : A_AC3
Продолжительность : 1 ч. 36 м.
Вид битрейта : Постоянный
Битрейт : 384 Кбит/сек
Каналы : 6 каналов
ChannelLayout : L R C LFE Ls Rs
Частота : 48,0 КГц
Частота кадров : 31,250 кадров/сек (1536 SPF)
Битовая глубина : 16 бит
Метод сжатия : С потерями
Размер потока : 266 Мбайт (4%)
Заголовок : iTunes
Язык : Russian
Default : Да
Forced : Нет

Аудио #2
Идентификатор : 3
Формат : AC-3
Формат/Информация : Audio Coding 3
Коммерческое название : Dolby Digital
Идентификатор кодека : A_AC3
Продолжительность : 1 ч. 36 м.
Вид битрейта : Постоянный
Битрейт : 640 Кбит/сек
Каналы : 6 каналов
ChannelLayout : L R C LFE Ls Rs
Частота : 48,0 КГц
Частота кадров : 31,250 кадров/сек (1536 SPF)
Битовая глубина : 16 бит
Метод сжатия : С потерями
Размер потока : 443 Мбайт (6%)
Заголовок : Оригинал
Язык : English
Default : Нет
Forced : Нет

Текст #1
Идентификатор : 4
Формат : UTF-8
Идентификатор кодека : S_TEXT/UTF8
Идентификатор кодека/Информация : UTF-8 Plain Text
Продолжительность : 1 ч. 36 м.
Битрейт : 0 бит/сек
ElementCount : 16
Размер потока : 561 байт (0%)
Заголовок : Forced
Язык : Russian
Default : Да
Forced : Да

Текст #2
Идентификатор : 5
Формат : UTF-8
Идентификатор кодека : S_TEXT/UTF8
Идентификатор кодека/Информация : UTF-8 Plain Text
Продолжительность : 1 ч. 36 м.
Битрейт : 88 бит/сек
ElementCount : 1374
Размер потока : 62,4 Кбайт (0%)
Заголовок : Full
Язык : Russian
Default : Нет
Forced : Нет

Текст #3
Идентификатор : 6
Формат : UTF-8
Идентификатор кодека : S_TEXT/UTF8
Идентификатор кодека/Информация : UTF-8 Plain Text
Продолжительность : 1 ч. 27 м.
Битрейт : 67 бит/сек
ElementCount : 1322
Размер потока : 43,4 Кбайт (0%)
Заголовок : Full
Язык : English
Default : Нет
Forced : Нет

Меню
00:00:00.000 : en:Chapter 01
00:05:19.486 : en:Chapter 02
00:12:05.892 : en:Chapter 03
00:18:52.673 : en:Chapter 04
00:24:11.867 : en:Chapter 05
00:28:46.683 : en:Chapter 06
00:34:48.461 : en:Chapter 07
00:40:10.158 : en:Chapter 08
00:47:10.828 : en:Chapter 09
00:52:56.382 : en:Chapter 10
00:58:04.690 : en:Chapter 11
01:04:36.122 : en:Chapter 12
01:09:55.650 : en:Chapter 13
01:15:40.286 : en:Chapter 14
01:21:11.116 : en:Chapter 15
01:26:26.848 : en:Chapter 16
Cкриншот1 Angry Birds 2 в кино / The Angry Birds Movie 2 (2019) BDRip 1080p [HEVC] 10 bit от M@kSIMus
Загружается...
Cкриншот2 Angry Birds 2 в кино / The Angry Birds Movie 2 (2019) BDRip 1080p [HEVC] 10 bit от M@kSIMus
Загружается...
Cкриншот3 Angry Birds 2 в кино / The Angry Birds Movie 2 (2019) BDRip 1080p [HEVC] 10 bit от M@kSIMus
Загружается...
Cкриншот4 Angry Birds 2 в кино / The Angry Birds Movie 2 (2019) BDRip 1080p [HEVC] 10 bit от M@kSIMus
Загружается...
Сэмпл

ТоррентМагнет

Кнопки "Позвать в чате", "Спасибо" и "Пожертвование" доступны только зарегистрированным/авторизованным пользователям!

Поблагодарили: 5
375509, curly2, mat, MIGRANT, Холодец_3
17.11.2019  21:16:23
0
508
13
3
12.8 ГБ

Добавление нового комментария

Добавление комментариев доступно только зарегистрированным/авторизованным пользователям.