Регистрация / Смена пароля

💬 Мини-чат

moonson: Alex302, ну, сообственно туда всем нашим врагам и дорога. Жалко только враг Жан-Поля застрял на 16 % и ни туда, и ни сюда 😄
Alex302: moonson, труп вашего врага растащило вороньё)
  • alexyak
  • COOLGRAND
  • garant3v
  • sanuk1
Отправка сообщений доступно только зарегистрированным/авторизованным пользователям.
Онлайн (за 10 мин.): 4

Коза Ностра / The Valachi Papers (1972) BDRip 1080p [HEVC] 10 bit от Joker63

HEVC
10 bit
Обложка Коза Ностра / The Valachi Papers (1972) BDRip 1080p [HEVC] 10 bit от Joker63 Год: 1972
Страна: Франция, Италия, США
Жанр: Драма, Криминал
Продолжительность: 02:05:28

Режиссер: Теренс Янг
В ролях: Чарльз Бронсон, Лино Вентура, Джилл Айрленд, Вальтер Кьяри, Джозеф Вайсман, Анджело Инфанти, Фаусто Тоцци, Пупелла Маджио

Описание: Целых тридцать лет Джо Валачи был послушным солдатом нью-йоркской мафии и ее крестного отца — печально известного гангстера Вито Дженовезе. Начав с мелкого уличного воришки, в конце своей долгой карьеры он занял должность личного шофера Дженовезе. Попав на склоне лет в тюрьму, он решил покончить с прошлым и рассказать все, что знает о внутренней структуре «Коза Ностры». Приговоренный к смерти своим бывшим хозяином, назначившим за его голову награду в 100 тысяч долларов, Валачи понял, что отступать уже поздно. И на потрясенных слушателей пролился настоящий поток крови — бесконечные гангстерские войны, устранение конкурентов, казни провинившихся, жуткие убийства, совершенные со невероятной жестокостью, постоянная грызня между заправилами мафии.

КиноПоиск
7.087 547
IMDb
6.5
2965


Видео: 1918x1036, 5951 Kbps
Аудио1: AC3, 2 ch, 192 Kbps -
Русский, Профессиональный двухголосый
Аудио2: AC3, 2 ch, 192 Kbps -
Английский
Субтитры: Нет

Как за пару секунд удалить ненужные аудиодорожки и субтитры (Внимание! После удаления вы не сможете поддержать раздачу)

Медиаинфо
Общее
Уникальный идентификатор : 28873627199309787813503832904453993442 (0x15B8DBBB0808D4C7F85C02F1DB9633E2)
Полное имя : D:\Чарльз Бронсон\Коза Ностра (Записки Валачи) The Valachi Papers 1972 BDRip (1080p)(HEVC)10bit.mkv
Формат : Matroska
Версия формата : Version 4 / Version 2
Размер файла : 5,55 Гбайт
Продолжительность : 2 ч. 5 м.
Общий поток : 6337 Кбит/сек
Название фильма : Рип от Joker6346 для HEVC - CLUB
Дата кодирования : UTC 2018-07-20 11:15:40
Программа кодирования : mkvmerge v24.0.0 ('Beyond The Pale') 64-bit
Библиотека кодирования : libebml v1.3.6 + libmatroska v1.4.9
Обложка : Yes
Attachments : cover.jpg

Видео
Идентификатор : 1
Формат : HEVC
Формат/Информация : High Efficiency Video Coding
Профиль формата : Main 10@L5.1@Main
Идентификатор кодека : V_MPEGH/ISO/HEVC
Продолжительность : 2 ч. 5 м.
Битрейт : 5951 Кбит/сек
Ширина : 1918 пикселей
Высота : 1036 пикселей
Соотношение сторон : 1,85:1
Режим частоты кадров : Постоянный
Частота кадров : 23,976 (24000/1001) кадра/сек
Цветовое пространство : YUV
Субдискретизация насыщенности : 4:2:0
Битовая глубина : 10 бит
Бит/(Пиксели*Кадры) : 0.125
Размер потока : 5,22 Гбайт (94%)
Библиотека кодирования : x265 2.8+19-bcdc610cf5f0:[Windows][GCC 7.3.0][64 bit] 10bit
Настройки программы : cpuid=1049583 / frame-threads=5 / numa-pools=4 / wpp / no-pmode / no-pme / no-psnr / no-ssim / log-level=3 / input-csp=1 / input-res=1918x1036 / interlace=0 / total-frames=0 / level-idc=51 / high-tier=1 / uhd-bd=0 / ref=5 / allow-non-conformance / no-repeat-headers / annexb / no-aud / no-hrd / info / hash=0 / no-temporal-layers / open-gop / min-keyint=24 / keyint=240 / gop-lookahead=0 / bframes=4 / b-adapt=2 / b-pyramid / bframe-bias=0 / rc-lookahead=20 / lookahead-slices=6 / scenecut=40 / radl=0 / no-intra-refresh / ctu=64 / min-cu-size=8 / no-rect / no-amp / max-tu-size=32 / tu-inter-depth=1 / tu-intra-depth=1 / limit-tu=0 / rdoq-level=0 / dynamic-rd=0.00 / no-ssim-rd / signhide / no-tskip / nr-intra=0 / nr-inter=0 / no-constrained-intra / strong-intra-smoothing / max-merge=2 / limit-refs=3 / no-limit-modes / me=1 / subme=2 / merange=57 / temporal-mvp / weightp / no-weightb / no-analyze-src-pics / deblock=-2:-2 / sao / no-sao-non-deblock / rd=3 / no-early-skip / rskip / no-fast-intra / no-tskip-fast / no-cu-lossless / no-b-intra / no-splitrd-skip / rdpenalty=0 / psy-rd=2.00 / psy-rdoq=0.00 / no-rd-refine / no-lossless / cbqpoffs=0 / crqpoffs=0 / rc=abr / bitrate=6000 / qcomp=0.60 / qpstep=4 / stats-write=0 / stats-read=0 / ipratio=1.40 / pbratio=1.30 / aq-mode=1 / aq-strength=1.00 / cutree / zone-count=0 / no-strict-cbr / qg-size=32 / no-rc-grain / qpmax=69 / qpmin=0 / no-const-vbv / sar=1 / overscan=0 / videoformat=5 / range=0 / colorprim=1 / transfer=1 / colormatrix=1 / chromaloc=0 / display-window=0 / max-cll=0,0 / min-luma=0 / max-luma=1023 / log2-max-poc-lsb=8 / vui-timing-info / vui-hrd-info / slices=1 / no-opt-qp-pps / no-opt-ref-list-length-pps / no-multi-pass-opt-rps / scenecut-bias=0.05 / no-opt-cu-delta-qp / no-aq-motion / no-hdr / no-hdr-opt / no-dhdr10-opt / no-idr-recovery-sei / analysis-reuse-level=5 / scale-factor=0 / refine-intra=0 / refine-inter=0 / refine-mv=0 / no-limit-sao / ctu-info=0 / no-lowpass-dct / refine-mv-type=0 / copy-pic=1 / max-ausize-factor=1.0 / no-dynamic-refine / no-single-sei
Язык : English
Default : Да
Forced : Нет
Цветовой диапазон : Limited
Основные цвета : BT.709
Характеристики трансфера : BT.709
Коэффициенты матрицы : BT.709

Аудио #1
Идентификатор : 2
Формат : AC-3
Формат/Информация : Audio Coding 3
Идентификатор кодека : A_AC3
Продолжительность : 2 ч. 5 м.
Вид битрейта : Постоянный
Битрейт : 192 Кбит/сек
Каналы : 2 канала
Расположение каналов : Front: L R
Частота : 48,0 КГц
Частота кадров : 31,250 кадров/сек (1536 SPF)
Битовая глубина : 16 бит
Метод сжатия : С потерями
Размер потока : 172 Мбайт (3%)
Заголовок : DVO
Язык : Russian
ServiceKind/String : Complete Main
Default : Да
Forced : Нет

Аудио #2
Идентификатор : 3
Формат : AC-3
Формат/Информация : Audio Coding 3
Идентификатор кодека : A_AC3
Продолжительность : 2 ч. 5 м.
Вид битрейта : Постоянный
Битрейт : 192 Кбит/сек
Каналы : 2 канала
Расположение каналов : Front: L R
Частота : 48,0 КГц
Частота кадров : 31,250 кадров/сек (1536 SPF)
Битовая глубина : 16 бит
Метод сжатия : С потерями
Размер потока : 172 Мбайт (3%)
Заголовок : original
Язык : English
ServiceKind/String : Complete Main
Default : Нет
Forced : Нет

Меню
00:00:00.000 : :Chapter 1
00:12:43.429 : :Chapter 2
00:27:45.664 : :Chapter 3
00:45:11.500 : :Chapter 4
00:59:11.631 : :Chapter 5
01:11:07.763 : :Chapter 6
01:28:00.108 : :Chapter 7
01:47:06.044 : :Chapter 8
02:03:36.117 : :Chapter 9
02:05:28.312 : :Chapter 10
Cкриншот1 Коза Ностра / The Valachi Papers (1972) BDRip 1080p [HEVC] 10 bit от Joker63
Загружается...
Cкриншот2 Коза Ностра / The Valachi Papers (1972) BDRip 1080p [HEVC] 10 bit от Joker63
Загружается...
Cкриншот3 Коза Ностра / The Valachi Papers (1972) BDRip 1080p [HEVC] 10 bit от Joker63
Загружается...
Cкриншот4 Коза Ностра / The Valachi Papers (1972) BDRip 1080p [HEVC] 10 bit от Joker63
Загружается...
Сэмпл Торрент🧲 Магнет

Кнопки "Позвать в чате" и "Спасибо" доступны только зарегистрированным/авторизованным пользователям!

Файлы: 1
  • Коза Ностра (Записки Валачи) The Valachi Papers 1972 BDRip (1080p)(HEVC)10bit.mkv   5.55 ГБ
Поблагодарили: 2
brukvalub, Undervest
joker63
015025.55 ГБ

Добавление нового комментария

Добавление комментариев доступно только зарегистрированным/авторизованным пользователям.