Обложка Омен: Перерождение / The Prodigy (2019) BDRip 1080p [HEVC] 10 bit от HANNIBALОбложка Убийца 2. Против всех / Sicario: Day of the Soldado (2018) BDRip 1080p [HEVC] 10 bit от Alex_AОбложка Апгрейд / Upgrade (2018) BDRip 1080p [HEVC] 10 bit от druidblackОбложка Человек-паук: Через вселенные / Spider-Man: Into the Spider-Verse (2018) [Локализованная версия] BDRip 1080p [HEVC] 10 bit от AlexTwittОбложка Жажда смерти / Death Wish (2018) BDRip 1080p [HEVC] 10 bit от XuMuKОбложка Суперсемейка 2 / Incredibles 2 (2018) BDRip 1080p [HEVC] 10 bit от M@kSIMusОбложка Видок: Охотник на призраков / L'Empereur de Paris (2018) BDRip 1080p [HEVC] 10 bit от HANNIBALОбложка Покемон. Детектив Пикачу / Pokémon Detective Pikachu (2019) BDRip 1080p [HEVC] 10 bit от HANNIBALОбложка Ограбление в ураган / The Hurricane Heist (2018) BDRip 1080p [HEVC] 10 bit от HANNIBALОбложка Закатать в асфальт / Dragged Across Concrete (2018) BDRip 1080p [HEVC] 10 bit от HANNIBAL

Авторизация

Смена пароля

captcha

Регистрация

captcha

🔍 Поиск

Мини-чат

(19:28)dixen18: Доброго вечера всем) Скажите а по странам тут нельзя сортировку делать да?
(19:36)OldGamer: dixen18, нет
(20:03)dixen18: OldGamer, ну ничего страшного)
(22:08)PRO-USTAS: привет админ такая идея а можно сделать сортировку по пользевателям типа фильмы только от Mr. Fox и тогдалия
(23:41)Kaban: PRO-USTAS, можно ввести в поиске вместо фильма логин аплоадера и в результате вам выдаст все его раздачи
(10:13)Temir_Nator: Всем привет)) А бывают раздачи в OPEN MATE формате?))) Если есть возможность, делайте и OPEN MATE)))
(10:29)OldGamer: Бывают
(11:22)Kaban: OldGamer, но редко)
(12:32)Temir_Nator: Жаль :(
(14:18)Ярослав: День добрый всем. Александра (Финальная версия) поможет кто раздать?
(14:18)Ярослав: https://hevc-club.video/video-1388/
(14:24)OldGamer: Может Джокер попозже заглянет, его релиз
(20:05)GrandConvoy: Раздайте, пожалуйста, Хищник 2 / Predator 2 (1990) BDRip 1080p [HEVC] 10 bit от HANNIBAL
(23:24)joker63: Ярослав, Перекачай торрент файл по новому,я обновил раздачу постою на ней немного.Ночью не стою.
(19:06)Ярослав: GrandConvoy, Встал на раздачу.
(19:50)GrandConvoy: Раздайте, пожалуйста, Хищник 2 / Predator 2 (1990) BDRip 1080p [HEVC] 10 bit от HANNIBAL
(19:51)GrandConvoy: ЯрославЯрослав, Что то не скачивается(
(19:51)GrandConvoy: Привет
(19:51)GrandConvoy: У меня на NAS торент стоит уже второй день( Загрузки нет(
  • alexyak
  • Guz81
  • Kaban
  • mehanik2915
  • Schumer
Онлайн: 5
Отправка сообщений доступно только зарегистрированным/авторизованным пользователям.

Марс атакует! / Mars Attacks! (1996) BDRip 1080p [HEVC] 10 bit от Mr. Fox

HEVC
10 bit
Обложка Марс атакует! / Mars Attacks! (1996) BDRip 1080p [HEVC] 10 bit от Mr. Fox Год: 1996
Страна: США
Студия: Tim Burton Productions, Warner Bros.
Жанр: Фантастика, Комедия
Продолжительность: 01:45:46

Режиссер: Тим Бёртон
В ролях: Джек Николсон, Гленн Клоуз, Аннетт Бенинг, Пирс Броснан, Дэнни ДеВито, Мартин Шорт, Сара Джессика Паркер, Майкл Дж. Фокс, Род Стайгер, Том Джонс, Натали Портман

Описание: Наша планета подверглась чудовищному нападению. Марсиане — бесстрастные и бездушные существа — эти маленькие зеленые создания высаживаются в пустыне со своих космических кораблей, а затем наступают на всех направлениях. Вашингтон, Лас-Вегас и другие города сотрясаются от мощнейших взрывов, разрушениям нет числа.


Формат: MKV
Видео: 1920x796, ~5468 Kbps
Аудио1: AC3, 6 ch, 384 Kbps -
Русский, дублированный
Аудио2: AC3, 6 ch, 448 Kbps -
Русский, DVO (Tycoon)
Аудио3: AC3, 6 ch, 640 Kbps -
Английский
Субтитры: Русские, английские

Как за пару секунд удалить ненужные аудиодорожки и субтитры (Внимание! После удаления вы не сможете поддержать раздачу)

Медиаинфо
Общее
Уникальный идентификатор : 149430128036363120978893331040870877012 (0x706B32211EF43370193940AEFFF84754)
Полное имя : R:\Mars Attacks! (1996) BDRip 1080p [HEVC].mkv
Формат : Matroska
Версия формата : Version 4 / Version 2
Размер файла : 5,13 Гбайт
Продолжительность : 1 ч. 45 м.
Общий поток : 6942 Кбит/сек
Название фильма : Mars Attacks! (1996)
Дата кодирования : UTC 2019-11-06 02:52:45
Программа кодирования : mkvmerge v37.0.0 ('Leave It') 64-bit
Библиотека кодирования : libebml v1.3.9 + libmatroska v1.5.2
Обложка : Yes
Attachments : cover.jpg

Видео
Идентификатор : 1
Формат : HEVC
Формат/Информация : High Efficiency Video Coding
Профиль формата : Main 10@L4.1@High
Идентификатор кодека : V_MPEGH/ISO/HEVC
Продолжительность : 1 ч. 45 м.
Битрейт : 5468 Кбит/сек
Ширина : 1920 пикселей
Высота : 796 пикселей
Соотношение сторон : 2,40:1
Режим частоты кадров : Постоянный
Частота кадров : 23,976 (23976/1000) кадра/сек
Частота кадров в оригинале : 23,976 (24000/1001) кадра/сек
Цветовое пространство : YUV
Субдискретизация насыщенности : 4:2:0
Битовая глубина : 10 бит
Бит/(Пиксели*Кадры) : 0.149
Размер потока : 4,04 Гбайт (79%)
Библиотека кодирования : x265 3.1.2+1-76650bab70f9:[Windows][MSVC 1922][64 bit] 10bit
Настройки программы : cpuid=1111039 / frame-threads=3 / numa-pools=12 / wpp / no-pmode / no-pme / no-psnr / no-ssim / log-level=2 / input-csp=1 / input-res=1920x796 / interlace=0 / total-frames=144307 / level-idc=41 / high-tier=1 / uhd-bd=0 / ref=5 / no-allow-non-conformance / no-repeat-headers / annexb / no-aud / no-hrd / info / hash=0 / no-temporal-layers / open-gop / min-keyint=23 / keyint=240 / gop-lookahead=0 / bframes=12 / b-adapt=2 / b-pyramid / bframe-bias=0 / rc-lookahead=60 / lookahead-slices=4 / scenecut=40 / radl=0 / no-splice / no-intra-refresh / ctu=32 / min-cu-size=8 / rect / amp / max-tu-size=32 / tu-inter-depth=4 / tu-intra-depth=4 / limit-tu=1 / rdoq-level=2 / dynamic-rd=0.00 / no-ssim-rd / signhide / no-tskip / nr-intra=0 / nr-inter=0 / no-constrained-intra / no-strong-intra-smoothing / max-merge=4 / limit-refs=2 / limit-modes / me=3 / subme=7 / merange=57 / temporal-mvp / weightp / weightb / no-analyze-src-pics / deblock=-3:-3 / no-sao / no-sao-non-deblock / rd=6 / no-early-skip / no-rskip / no-fast-intra / no-tskip-fast / no-cu-lossless / no-b-intra / no-splitrd-skip / rdpenalty=0 / psy-rd=2.00 / psy-rdoq=1.00 / no-rd-refine / no-lossless / cbqpoffs=0 / crqpoffs=0 / rc=crf / crf=20.0 / qcomp=0.65 / qpstep=4 / stats-write=0 / stats-read=0 / vbv-maxrate=50000 / vbv-bufsize=50000 / vbv-init=0.9 / crf-max=0.0 / crf-min=0.0 / ipratio=1.40 / pbratio=1.30 / aq-mode=1 / aq-strength=1.00 / no-cutree / zone-count=0 / no-strict-cbr / qg-size=32 / no-rc-grain / qpmax=69 / qpmin=0 / no-const-vbv / sar=1 / overscan=0 / videoformat=5 / range=0 / colorprim=1 / transfer=1 / colormatrix=1 / chromaloc=0 / display-window=0cll=0,0 / min-luma=0 / max-luma=1023 / log2-max-poc-lsb=8 / vui-timing-info / vui-hrd-info / slices=1 / no-opt-qp-pps / no-opt-ref-list-length-pps / no-multi-pass-opt-rps / scenecut-bias=0.05 / no-opt-cu-delta-qp / no-aq-motion / no-hdr / no-hdr-opt / no-dhdr10-opt / no-idr-recovery-sei / analysis-reuse-level=5 / scale-factor=0 / refine-intra=0 / refine-inter=0 / refine-mv=0 / refine-ctu-distortion=0 / no-limit-sao / ctu-info=0 / no-lowpass-dct / refine-analysis-type=0 / copy-pic=1 / max-ausize-factor=1.0 / no-dynamic-refine / no-single-sei / no-hevc-aq / no-svt / no-field / qp-adaptation-range=1.00
Default : Да
Forced : Нет
Цветовой диапазон : Limited
Основные цвета : BT.709
Характеристики трансфера : BT.709
Коэффициенты матрицы : BT.709

Аудио #1
Идентификатор : 2
Формат : AC-3
Формат/Информация : Audio Coding 3
Идентификатор кодека : A_AC3
Продолжительность : 1 ч. 45 м.
Вид битрейта : Постоянный
Битрейт : 384 Кбит/сек
Каналы : 6 каналов
Расположение каналов : Front: L C R, Side: L R, LFE
Частота : 48,0 КГц
Частота кадров : 31,250 кадров/сек (1536 SPF)
Битовая глубина : 16 бит
Метод сжатия : С потерями
Размер потока : 291 Мбайт (6%)
Заголовок : Dub
Язык : Russian
ServiceKind/String : Complete Main
Default : Да
Forced : Нет

Аудио #2
Идентификатор : 3
Формат : AC-3
Формат/Информация : Audio Coding 3
Идентификатор кодека : A_AC3
Продолжительность : 1 ч. 45 м.
Вид битрейта : Постоянный
Битрейт : 448 Кбит/сек
Каналы : 6 каналов
Расположение каналов : Front: L C R, Side: L R, LFE
Частота : 48,0 КГц
Частота кадров : 31,250 кадров/сек (1536 SPF)
Битовая глубина : 16 бит
Метод сжатия : С потерями
Размер потока : 339 Мбайт (6%)
Заголовок : Tycoon
Язык : Russian
ServiceKind/String : Complete Main
Default : Нет
Forced : Нет

Аудио #3
Идентификатор : 4
Формат : AC-3
Формат/Информация : Audio Coding 3
Идентификатор кодека : A_AC3
Продолжительность : 1 ч. 45 м.
Вид битрейта : Постоянный
Битрейт : 640 Кбит/сек
Каналы : 6 каналов
Расположение каналов : Front: L C R, Side: L R, LFE
Частота : 48,0 КГц
Частота кадров : 31,250 кадров/сек (1536 SPF)
Битовая глубина : 16 бит
Метод сжатия : С потерями
Размер потока : 484 Мбайт (9%)
Заголовок : Original
Язык : English
ServiceKind/String : Complete Main
Default : Нет
Forced : Нет

Текст #1
Идентификатор : 5
Формат : UTF-8
Идентификатор кодека : S_TEXT/UTF8
Идентификатор кодека/Информация : UTF-8 Plain Text
Продолжительность : 1 ч. 38 м.
Битрейт : 61 бит/сек
ElementCount : 1064
Размер потока : 44,5 Кбайт (0%)
Заголовок : R5
Язык : Russian
Default : Нет
Forced : Нет

Текст #2
Идентификатор : 6
Формат : UTF-8
Идентификатор кодека : S_TEXT/UTF8
Идентификатор кодека/Информация : UTF-8 Plain Text
Продолжительность : 1 ч. 39 м.
Битрейт : 44 бит/сек
ElementCount : 978
Размер потока : 32,4 Кбайт (0%)
Заголовок : Full
Язык : English
Default : Нет
Forced : Нет

Меню
00:00:00.000 : en:00:00:00.000
00:01:24.834 : en:00:01:24.834
00:04:01.824 : en:00:04:01.824
00:06:41.192 : en:00:06:41.192
00:09:19.558 : en:00:09:19.558
00:12:40.009 : en:00:12:40.009
00:17:31.800 : en:00:17:31.800
00:21:02.135 : en:00:21:02.135
00:24:05.443 : en:00:24:05.443
00:26:42.309 : en:00:26:42.309
00:27:33.401 : en:00:27:33.401
00:29:00.363 : en:00:29:00.363
00:35:25.123 : en:00:35:25.123
00:43:25.269 : en:00:43:25.269
00:45:12.501 : en:00:45:12.501
00:46:37.002 : en:00:46:37.002
00:47:52.035 : en:00:47:52.035
00:51:44.226 : en:00:51:44.226
00:55:23.695 : en:00:55:23.695
00:57:46.087 : en:00:57:46.087
00:58:30.215 : en:00:58:30.215
00:59:44.872 : en:00:59:44.872
01:04:31.784 : en:01:04:31.784
01:07:28.794 : en:01:07:28.794
01:10:59.171 : en:01:10:59.171
01:12:33.515 : en:01:12:33.515
01:15:22.976 : en:01:15:22.976
01:17:42.658 : en:01:17:42.658
01:19:36.313 : en:01:19:36.313
01:20:58.103 : en:01:20:58.103
01:23:35.969 : en:01:23:35.969
01:25:24.911 : en:01:25:24.911
01:27:09.307 : en:01:27:09.307
01:30:17.120 : en:01:30:17.120
01:30:49.777 : en:01:30:49.777
01:33:58.507 : en:01:33:58.507
01:35:57.084 : en:01:35:57.084
01:40:03.038 : en:01:40:03.038
Cкриншот1 Марс атакует! / Mars Attacks! (1996) BDRip 1080p [HEVC] 10 bit от Mr. Fox
Загружается...
Cкриншот2 Марс атакует! / Mars Attacks! (1996) BDRip 1080p [HEVC] 10 bit от Mr. Fox
Загружается...
Cкриншот3 Марс атакует! / Mars Attacks! (1996) BDRip 1080p [HEVC] 10 bit от Mr. Fox
Загружается...
Cкриншот4 Марс атакует! / Mars Attacks! (1996) BDRip 1080p [HEVC] 10 bit от Mr. Fox
Загружается...
СэмплТоррентМагнет

Кнопки "Позвать в чате", "Спасибо" и "Пожертвование" доступны только зарегистрированным/авторизованным пользователям!

Поблагодарили: 1
375509
07.11.2019  20:30:40
0
35
2
0
5.13 ГБ

Добавление нового комментария

Добавление комментариев доступно только зарегистрированным/авторизованным пользователям.