Обложка Щелкунчик и четыре королевства / The Nutcracker and the Four Realms (2018) BDRip 1080p [HEVC] 10 bit от M@kSIMusОбложка Маугли дикой планеты / Terra Willy: Planète inconnue (2019) BDRip 1080p [HEVC] 10 bit от HANNIBALОбложка Судная ночь. Начало / The First Purge (2018) BDRip 1080p [HEVC] 10 bit от HANNIBALОбложка Смолфут / Smallfoot (2018) BDRip 1080p [HEVC] 10 bit от M@kSIMusОбложка Человек на Луне / First Man (2018) [IMAX Edition] BDRip 1080p [HEVC] 10 bit от M@kSIMusОбложка Мэри Поппинс возвращается / Mary Poppins Returns (2018) BDRip 1080p [HEVC] 10 bit от Mr. FoxОбложка Ограбление в ураган / The Hurricane Heist (2018) BDRip 1080p [HEVC] 10 bit от HANNIBALОбложка Дэдпул 2 / Deadpool 2 (2018) [Театральная версия] BDRip 1080p [HEVC] 10 bit от M@kSIMusОбложка Человек-паук: Через вселенные / Spider-Man: Into the Spider-Verse (2018) [Локализованная версия] BDRip 1080p [HEVC] 10 bit от M@kSIMusОбложка Бамблби / Bumblebee (2018) BDRip 1080p [HEVC] 10 bit от HANNIBAL

Авторизация

Смена пароля

captcha

Регистрация

captcha

🔍 Поиск

Мини-чат

(19:28)dixen18: Доброго вечера всем) Скажите а по странам тут нельзя сортировку делать да?
(19:36)OldGamer: dixen18, нет
(20:03)dixen18: OldGamer, ну ничего страшного)
(22:08)PRO-USTAS: привет админ такая идея а можно сделать сортировку по пользевателям типа фильмы только от Mr. Fox и тогдалия
(23:41)Kaban: PRO-USTAS, можно ввести в поиске вместо фильма логин аплоадера и в результате вам выдаст все его раздачи
(10:13)Temir_Nator: Всем привет)) А бывают раздачи в OPEN MATE формате?))) Если есть возможность, делайте и OPEN MATE)))
(10:29)OldGamer: Бывают
(11:22)Kaban: OldGamer, но редко)
(12:32)Temir_Nator: Жаль :(
(14:18)Ярослав: День добрый всем. Александра (Финальная версия) поможет кто раздать?
(14:18)Ярослав: https://hevc-club.video/video-1388/
(14:24)OldGamer: Может Джокер попозже заглянет, его релиз
(20:05)GrandConvoy: Раздайте, пожалуйста, Хищник 2 / Predator 2 (1990) BDRip 1080p [HEVC] 10 bit от HANNIBAL
(23:24)joker63: Ярослав, Перекачай торрент файл по новому,я обновил раздачу постою на ней немного.Ночью не стою.
(19:06)Ярослав: GrandConvoy, Встал на раздачу.
(19:50)GrandConvoy: Раздайте, пожалуйста, Хищник 2 / Predator 2 (1990) BDRip 1080p [HEVC] 10 bit от HANNIBAL
(19:51)GrandConvoy: ЯрославЯрослав, Что то не скачивается(
(19:51)GrandConvoy: Привет
(19:51)GrandConvoy: У меня на NAS торент стоит уже второй день( Загрузки нет(
  • OldGamer
  • alex72
  • alexyak
  • Brooklyn
  • cdmitry
  • netfigni
Онлайн: 6
Отправка сообщений доступно только зарегистрированным/авторизованным пользователям.

Исчезнувшая / Gone Girl (2014) BDRip 1080p [HEVC] 10 bit от HANNIBAL

HEVC
10 bit
Обложка Исчезнувшая / Gone Girl (2014) BDRip 1080p [HEVC] 10 bit от HANNIBAL Год: 2014
Страна: США
Студия: Artemple - Hollywood, New Regency Pictures, Pacific Standard, Regency Enterprises
Жанр: Триллер, Драма, Детектив
Продолжительность: 02:29:02

Режиссер: Дэвид Финчер
В ролях: Розамунд Пайк, Бен Аффлек, Нил Патрик Харрис, Мисси Пайл, Скут МакНэйри, Кэрри Кун, Тайлер Перри, Ли Норрис, Бойд Холбрук, Патрик Фьюджит, Эмили Ратажковски, Кейси Уилсон, Лола Керк, Дэвид Кленнон

Описание: Все было готово для празднования пятилетнего юбилея супружеской жизни, когда вдруг необъяснимо пропал один из виновников торжества. Остались следы борьбы в доме, кровь, которую явно пытались стереть, - и цепочка «ключей» в игре под названием «охота за сокровищами»; красивая, умная и невероятно изобретательная жена ежегодно устраивала ее для своего обожаемого мужа. И похоже, что эти «ключи» - размещенные ею тут и там странные записки и не менее странные безделушки - дают единственный шанс пролить свет на судьбу исчезнувшей. Вот только не придется ли «охотнику» в процессе поиска раскрыть миру и пару-тройку собственных малосимпатичных тайн?


7.94278154
8.1
784674


Формат: MKV
Видео: 1920x800, ~6721 Kbps
Аудио1: AC3, 6 ch, 640 Kbps -
Русский, Дублированный (Лицензия)

Аудио2: AC3, 6 ch, 640 Kbps -
Русский, AVO (Юрий Сербин)

Аудио3: AC3, 6 ch, 640 Kbps -
Русский, AVO (Алексей Матвеев)

Аудио4: AC3, 6 ch, 640 Kbps -
Английский

Субтитры: Русские, английские

Как за пару секунд удалить ненужные аудиодорожки и субтитры (Внимание! После удаления вы не сможете поддержать раздачу)

Медиаинфо
General
Unique ID : 13233731859022363407840330339227407539 (0x9F4B95B19A4A2E0F7FF87C89E7E14B3)
Complete name : F:\HEVC-CLUB\Gone Girl (2014) BDRip-HEVC 1080p 10bit.mkv
Format : Matroska
Format version : Version 4
File size : 9.66 GiB
Duration : 2 h 29 min
Overall bit rate : 9 284 kb/s
Movie name : Исчезнувшая
Encoded date : UTC 2019-11-05 18:27:37
Writing application : mkvmerge v35.0.0 ('All The Love In The World') 64-bit
Writing library : libebml v1.3.9 + libmatroska v1.5.2 / Lavf57.71.100
Attachments : poster.jpg
ACTORS : Бен Аффлек, Розамунд Пайк,
COUNTRY : США
DATE : 2014
DIRECTOR : Дэвид Финчер
ENCODING_INFO : MATROSKA,WEBM > MKV Пользовательский / H264 > X265 CRF 17.5 Slow
GENRE : триллер, драма, детектив
HD_VIDEO : 1
Language : und
MEDIA_TYPE : 9
ORIGINAL_TITLE : Gone Girl

Video
ID : 1
Format : HEVC
Format/Info : High Efficiency Video Coding
Format profile : Main 10@L4.1@High
Codec ID : V_MPEGH/ISO/HEVC
Duration : 2 h 29 min
Bit rate : 6 721 kb/s
Width : 1 920 pixels
Height : 800 pixels
Display aspect ratio : 2.40:1
Frame rate mode : Constant
Frame rate : 23.976 (24000/1001) FPS
Color space : YUV
Chroma subsampling : 4:2:0
Bit depth : 10 bits
Bits/(Pixel*Frame) : 0.183
Stream size : 7.00 GiB (72%)
Title : BDRemux
Writing library : x265 3.1+7-147fb92c5ed5:[Windows][clang 8.0.0][64 bit] 10bit
Encoding settings : cpuid=1111039 / frame-threads=13 / wpp / no-pmode / no-pme / no-psnr / no-ssim / log-level=3 / input-csp=1 / input-res=1920x800 / interlace=0 / total-frames=0 / level-idc=41 / high-tier=1 / uhd-bd=0 / ref=5 / allow-non-conformance / no-repeat-headers / annexb / no-aud / no-hrd / info / hash=0 / no-temporal-layers / open-gop / min-keyint=23 / keyint=240 / gop-lookahead=0 / bframes=8 / b-adapt=2 / b-pyramid / bframe-bias=0 / rc-lookahead=60 / lookahead-slices=4 / scenecut=40 / radl=0 / no-splice / no-intra-refresh / ctu=64 / min-cu-size=8 / rect / amp / max-tu-size=32 / tu-inter-depth=4 / tu-intra-depth=4 / limit-tu=4 / rdoq-level=2 / dynamic-rd=0.00 / no-ssim-rd / signhide / no-tskip / nr-intra=0 / nr-inter=0 / no-constrained-intra / no-strong-intra-smoothing / max-merge=5 / limit-refs=3 / limit-modes / me=3 / subme=7 / merange=57 / temporal-mvp / no-hme / weightp / weightb / no-analyze-src-pics / deblock=-3:-3 / no-sao / no-sao-non-deblock / rd=6 / no-early-skip / no-rskip / no-fast-intra / no-tskip-fast / no-cu-lossless / no-b-intra / no-splitrd-skip / rdpenalty=0 / psy-rd=2.00 / psy-rdoq=1.00 / no-rd-refine / no-lossless / cbqpoffs=0 / crqpoffs=0 / rc=crf / crf=17.5 / qcomp=0.60 / qpstep=4 / stats-write=0 / stats-read=0 / vbv-maxrate=50000 / vbv-bufsize=50000 / vbv-init=0.9 / crf-max=30.0 / crf-min=0.0 / ipratio=1.40 / pbratio=1.30 / aq-mode=2 / aq-strength=1.00 / no-cutree / zone-count=0 / no-strict-cbr / qg-size=32 / no-rc-grain / qpmax=69 / qpmin=0 / no-const-vbv / sar=1 / overscan=0 / videoformat=5 / range=0 / colorprim=1 / transfer=1 / colormatrix=1 / chromaloc=0 / display-window=0cll=0,0 / min-luma=0 / max-luma=1023 / log2-max-poc-lsb=8 / vui-timing-info / vui-hrd-info / slices=1 / no-opt-qp-pps / no-opt-ref-list-length-pps / no-multi-pass-opt-rps / scenecut-bias=0.05 / no-opt-cu-delta-qp / no-aq-motion / no-hdr / no-hdr-opt / no-dhdr10-opt / no-idr-recovery-sei / analysis-reuse-level=5 / scale-factor=0 / refine-intra=0 / refine-inter=0 / refine-mv=0 / refine-ctu-distortion=0 / no-limit-sao / ctu-info=0 / no-lowpass-dct / refine-analysis-type=0 / copy-pic=1 / max-ausize-factor=1.0 / no-dynamic-refine / no-single-sei / no-hevc-aq / no-svt / no-field / qp-adaptation-range=1.00
Language : English
Default : Yes
Forced : No
Color range : Limited
Color primaries : BT.709
Transfer characteristics : BT.709
Matrix coefficients : BT.709

Audio #1
ID : 2
Format : AC-3
Format/Info : Audio Coding 3
Commercial name : Dolby Digital
Codec ID : A_AC3
Duration : 2 h 29 min
Bit rate mode : Constant
Bit rate : 640 kb/s
Channel(s) : 6 channels
Channel layout : L R C LFE Ls Rs
Sampling rate : 48.0 kHz
Frame rate : 31.250 FPS (1536 SPF)
Bit depth : 16 bits
Compression mode : Lossy
Stream size : 682 MiB (7%)
Title : DUB
Language : Russian
Service kind : Complete Main
Default : Yes
Forced : No

Audio #2
ID : 3
Format : AC-3
Format/Info : Audio Coding 3
Commercial name : Dolby Digital
Codec ID : A_AC3
Duration : 2 h 29 min
Bit rate mode : Constant
Bit rate : 640 kb/s
Channel(s) : 6 channels
Channel layout : L R C LFE Ls Rs
Sampling rate : 48.0 kHz
Frame rate : 31.250 FPS (1536 SPF)
Bit depth : 16 bits
Compression mode : Lossy
Stream size : 682 MiB (7%)
Title : AVO | DD 5.1 @ 640 kbps - Yu.Serbin
Language : Russian
Service kind : Complete Main
Default : No
Forced : No

Audio #3
ID : 4
Format : AC-3
Format/Info : Audio Coding 3
Commercial name : Dolby Digital
Codec ID : A_AC3
Duration : 2 h 29 min
Bit rate mode : Constant
Bit rate : 640 kb/s
Channel(s) : 6 channels
Channel layout : L R C LFE Ls Rs
Sampling rate : 48.0 kHz
Frame rate : 31.250 FPS (1536 SPF)
Bit depth : 16 bits
Compression mode : Lossy
Stream size : 682 MiB (7%)
Title : AVO | DD 5.1 @ 640 kbps - A.Matveev
Language : Russian
Service kind : Complete Main
Default : No
Forced : No

Audio #4
ID : 5
Format : AC-3
Format/Info : Audio Coding 3
Commercial name : Dolby Digital
Codec ID : A_AC3
Duration : 2 h 29 min
Bit rate mode : Constant
Bit rate : 640 kb/s
Channel(s) : 6 channels
Channel layout : L R C LFE Ls Rs
Sampling rate : 48.0 kHz
Frame rate : 31.250 FPS (1536 SPF)
Bit depth : 16 bits
Compression mode : Lossy
Stream size : 682 MiB (7%)
Title : Original | DD 5.1 @ 640 kbps
Language : English
Service kind : Complete Main
Default : No
Forced : No

Text #1
ID : 6
Format : UTF-8
Codec ID : S_TEXT/UTF8
Codec ID/Info : UTF-8 Plain Text
Duration : 2 h 28 min
Bit rate : 110 b/s
Count of elements : 2436
Stream size : 120 KiB (0%)
Title : Sub- Blu-ray EUR
Language : Russian
Default : Yes
Forced : No

Text #2
ID : 7
Format : UTF-8
Codec ID : S_TEXT/UTF8
Codec ID/Info : UTF-8 Plain Text
Duration : 2 h 24 min
Bit rate : 76 b/s
Count of elements : 2441
Stream size : 81.1 KiB (0%)
Title : Sub
Language : English
Default : No
Forced : No

Menu
00:00:00.000 : :00:00:00.000
00:03:27.958 : :00:03:27.958
00:06:57.834 : :00:06:57.834
00:08:19.541 : :00:08:19.541
00:11:58.593 : :00:11:58.593
00:15:01.484 : :00:15:01.484
00:18:13.509 : :00:18:13.509
00:19:56.737 : :00:19:56.737
00:21:43.093 : :00:21:43.093
00:23:53.849 : :00:23:53.849
00:28:34.880 : :00:28:34.880
00:31:32.516 : :00:31:32.516
00:34:39.077 : :00:34:39.077
00:40:51.199 : :00:40:51.199
00:44:37.383 : :00:44:37.383
00:46:57.815 : :00:46:57.815
00:49:19.707 : :00:49:19.707
00:54:13.333 : :00:54:13.333
01:00:06.686 : :01:00:06.686
01:03:16.209 : :01:03:16.209
01:06:08.715 : :01:06:08.715
01:12:56.998 : :01:12:56.998
01:15:13.008 : :01:15:13.008
01:19:54.456 : :01:19:54.456
01:21:56.120 : :01:21:56.120
01:27:24.156 : :01:27:24.156
01:28:12.537 : :01:28:12.537
01:33:28.561 : :01:33:28.561
01:39:34.510 : :01:39:34.510
01:46:26.714 : :01:46:26.714
01:50:46.515 : :01:50:46.515
01:56:40.619 : :01:56:40.619
01:59:06.097 : :01:59:06.097
02:02:23.127 : :02:02:23.127
02:05:35.069 : :02:05:35.069
02:12:30.818 : :02:12:30.818
02:16:12.790 : :02:16:12.790
02:19:56.930 : :02:19:56.930
02:22:42.304 : :02:22:42.304
02:24:15.647 : :02:24:15.647
Cкриншот1 Исчезнувшая / Gone Girl (2014) BDRip 1080p [HEVC] 10 bit от HANNIBAL
Загружается...
Cкриншот2 Исчезнувшая / Gone Girl (2014) BDRip 1080p [HEVC] 10 bit от HANNIBAL
Загружается...
Cкриншот3 Исчезнувшая / Gone Girl (2014) BDRip 1080p [HEVC] 10 bit от HANNIBAL
Загружается...
Cкриншот4 Исчезнувшая / Gone Girl (2014) BDRip 1080p [HEVC] 10 bit от HANNIBAL
Загружается...
СэмплТоррентМагнет

Кнопки "Позвать в чате", "Спасибо" и "Пожертвование" доступны только зарегистрированным/авторизованным пользователям!

Поблагодарили: 4
375509, GIS88, Kaban, sabretooth
06.11.2019  04:25:50
0
140
4
0
9.66 ГБ

Добавление нового комментария

Добавление комментариев доступно только зарегистрированным/авторизованным пользователям.