Обложка Монстры на каникулах 3: Море зовёт / Hotel Transylvania 3: Summer Vacation (2018) BDRip 1080p [HEVC] 10 bit от M@kSIMusОбложка Солнцестояние / Midsommar (2019) BDRip 1080p [HEVC] 10 bit от M@kSIMusОбложка Вдовы / Widows (2018) BDRip 1080p [HEVC] 10 bit от HANNIBALОбложка Ральф против интернета / Ralph Breaks the Internet (2018) BDRip 1080p [HEVC] 10 bit от M@kSIMusОбложка Собибор (2018) BDRip 1080p [HEVC] 10 bit от HANNIBALОбложка Тайна дома с часами / The House with a Clock in Its Walls (2018) BDRip 1080p [HEVC] 10 bit от M@kSIMusОбложка Хеллбой / Hellboy (2019) BDRip 1080p [HEVC] 10 bit от HANNIBALОбложка Бегущий в лабиринте: Лекарство от смерти / Maze Runner: The Death Cure (2018) BDRip 1080p [HEVC] 10 bit от M@kSIMusОбложка Evanescence - Synthesis Live (2018) BDRip 1080p [HEVC] 10 bit от HANNIBALОбложка Кролик Питер / Peter Rabbit (2018) BDRip 1080p [HEVC] 10 bit от OldGamer

Авторизация

Смена пароля

captcha

Регистрация

captcha

🔍 Поиск

Мини-чат

(19:28)dixen18: Доброго вечера всем) Скажите а по странам тут нельзя сортировку делать да?
(19:36)OldGamer: dixen18, нет
(20:03)dixen18: OldGamer, ну ничего страшного)
(22:08)PRO-USTAS: привет админ такая идея а можно сделать сортировку по пользевателям типа фильмы только от Mr. Fox и тогдалия
(23:41)Kaban: PRO-USTAS, можно ввести в поиске вместо фильма логин аплоадера и в результате вам выдаст все его раздачи
(10:13)Temir_Nator: Всем привет)) А бывают раздачи в OPEN MATE формате?))) Если есть возможность, делайте и OPEN MATE)))
(10:29)OldGamer: Бывают
(11:22)Kaban: OldGamer, но редко)
(12:32)Temir_Nator: Жаль :(
(14:18)Ярослав: День добрый всем. Александра (Финальная версия) поможет кто раздать?
(14:18)Ярослав: https://hevc-club.video/video-1388/
(14:24)OldGamer: Может Джокер попозже заглянет, его релиз
(20:05)GrandConvoy: Раздайте, пожалуйста, Хищник 2 / Predator 2 (1990) BDRip 1080p [HEVC] 10 bit от HANNIBAL
(23:24)joker63: Ярослав, Перекачай торрент файл по новому,я обновил раздачу постою на ней немного.Ночью не стою.
(19:06)Ярослав: GrandConvoy, Встал на раздачу.
(19:50)GrandConvoy: Раздайте, пожалуйста, Хищник 2 / Predator 2 (1990) BDRip 1080p [HEVC] 10 bit от HANNIBAL
(19:51)GrandConvoy: ЯрославЯрослав, Что то не скачивается(
(19:51)GrandConvoy: Привет
(19:51)GrandConvoy: У меня на NAS торент стоит уже второй день( Загрузки нет(
  • alexyak
  • dreadl0ck
Онлайн: 2
Отправка сообщений доступно только зарегистрированным/авторизованным пользователям.

Шафт / Shaft (2019) BDRip 1080p [HEVC] 10 bit от HANNIBAL

HEVC
10 bit
Обложка Шафт / Shaft (2019) BDRip 1080p [HEVC] 10 bit от HANNIBAL Год: 2019
Страна: США
Студия: Davis Entertainment, Khalabo Ink Society, Netflix
Жанр: Боевик, Комедия, Криминал
Продолжительность: 01:51:31

Режиссер: Тим Стори
В ролях: Сэмюэл Л. Джексон, Джесси Ашер, Ричард Раундтри, Реджина Холл, Александра Шипп, Мэтт Лауриа, Титус Уэлливер, Метод Мэн, Исаак Де Банколе, Эван Джогиа

Описание: Джон Шафт III - специалист по кибербезопасности в ФБР, не привыкший решать проблемы грубой силой. Он предпочитает полагаться на логику и расчёт, но убийство лучшего друга ставит его в тупик. С ним не разобраться современными методами, так что Джону ничего не остается, кроме как обратиться за помощью к старшему поколению Шафтов, чьи старые методы помогут ему найти убийцу.


6.4535962
6.4
32280


Формат: MKV
Видео: 1920x804, ~5253 Kbps
Аудио1: AC3, 6 ch, 640 Kbps -
Русский, Дублированный (Netflix)

Аудио2: AC3, 6 ch, 640 Kbps -
Английский, Оригинал

Субтитры: Русские (форсированные, полные), английские

Как за пару секунд удалить ненужные аудиодорожки и субтитры (Внимание! После удаления вы не сможете поддержать раздачу)

Медиаинфо
General
Unique ID : 290790171141538417865327752457637980917 (0xDAC4265A2D697FD44D3F26DCC949EAF5)
Complete name : D:Shaft (2019) BDRip 1080p 10 bit.mkv
Format : Matroska
Format version : Version 4
File size : 5.09 GiB
Duration : 1 h 51 min
Overall bit rate : 6 535 kb/s
Movie name : Shaft 2019 4K from селезень
Encoded date : UTC 2019-11-01 21:15:04
Writing application : mkvmerge v35.0.0 ('All The Love In The World') 64-bit
Writing library : libebml v1.3.9 + libmatroska v1.5.2
Cover : Yes
Attachments : cover.jpg

Video
ID : 1
Format : HEVC
Format/Info : High Efficiency Video Coding
Format profile : Main 10@L5.1@High
Codec ID : V_MPEGH/ISO/HEVC
Duration : 1 h 51 min
Bit rate : 5 253 kb/s
Width : 1 920 pixels
Height : 804 pixels
Display aspect ratio : 2.40:1
Frame rate mode : Constant
Frame rate : 23.976 (24000/1001) FPS
Color space : YUV
Chroma subsampling : 4:2:0
Bit depth : 10 bits
Bits/(Pixel*Frame) : 0.142
Stream size : 4.09 GiB (80%)
Writing library : x265 3.1+11-de920e0a3183:[Windows][clang 8.0.0][64 bit] 10bit
Encoding settings : cpuid=1111039 / frame-threads=13 / numa-pools=12 / wpp / no-pmode / no-pme / no-psnr / no-ssim / log-level=3 / input-csp=1 / input-res=1920x804 / interlace=0 / total-frames=0 / level-idc=51 / high-tier=1 / uhd-bd=0 / ref=5 / allow-non-conformance / no-repeat-headers / annexb / no-aud / no-hrd / info / hash=0 / no-temporal-layers / open-gop / min-keyint=24 / keyint=240 / gop-lookahead=0 / bframes=8 / b-adapt=2 / b-pyramid / bframe-bias=0 / rc-lookahead=60 / lookahead-slices=5 / scenecut=40 / radl=0 / no-splice / no-intra-refresh / ctu=64 / min-cu-size=8 / rect / amp / max-tu-size=32 / tu-inter-depth=4 / tu-intra-depth=4 / limit-tu=0 / rdoq-level=2 / dynamic-rd=0.00 / no-ssim-rd / signhide / no-tskip / nr-intra=0 / nr-inter=0 / no-constrained-intra / no-strong-intra-smoothing / max-merge=3 / limit-refs=1 / no-limit-modes / me=3 / subme=7 / merange=57 / temporal-mvp / no-hme / weightp / weightb / no-analyze-src-pics / deblock=-3:-3 / no-sao / no-sao-non-deblock / rd=6 / early-skip / rskip / no-fast-intra / no-tskip-fast / no-cu-lossless / b-intra / no-splitrd-skip / rdpenalty=0 / psy-rd=2.00 / psy-rdoq=1.00 / no-rd-refine / no-lossless / cbqpoffs=0 / crqpoffs=0 / rc=crf / crf=17.0 / qcomp=0.60 / qpstep=4 / stats-write=0 / stats-read=0 / vbv-maxrate=160000 / vbv-bufsize=160000 / vbv-init=0.9 / crf-max=30.0 / crf-min=0.0 / ipratio=1.40 / pbratio=1.30 / aq-mode=1 / aq-strength=1.00 / cutree / zone-count=0 / no-strict-cbr / qg-size=32 / no-rc-grain / qpmax=69 / qpmin=0 / no-const-vbv / sar=1 / overscan=0 / videoformat=5 / range=0 / colorprim=1 / transfer=1 / colormatrix=1 / chromaloc=0 / display-window=0cll=0,0 / min-luma=0 / max-luma=1023 / log2-max-poc-lsb=8 / vui-timing-info / vui-hrd-info / slices=1 / no-opt-qp-pps / no-opt-ref-list-length-pps / no-multi-pass-opt-rps / scenecut-bias=0.05 / no-opt-cu-delta-qp / no-aq-motion / no-hdr / no-hdr-opt / no-dhdr10-opt / no-idr-recovery-sei / analysis-reuse-level=5 / scale-factor=0 / refine-intra=0 / refine-inter=0 / refine-mv=0 / refine-ctu-distortion=0 / no-limit-sao / ctu-info=0 / no-lowpass-dct / refine-analysis-type=0 / copy-pic=1 / max-ausize-factor=1.0 / no-dynamic-refine / no-single-sei / no-hevc-aq / no-svt / no-field / qp-adaptation-range=1.00
Language : English
Default : Yes
Forced : No
Color range : Limited
Color primaries : BT.709
Transfer characteristics : BT.709
Matrix coefficients : BT.709

Audio #1
ID : 2
Format : AC-3
Format/Info : Audio Coding 3
Commercial name : Dolby Digital
Codec ID : A_AC3
Duration : 1 h 51 min
Bit rate mode : Constant
Bit rate : 640 kb/s
Channel(s) : 6 channels
Channel layout : L R C LFE Ls Rs
Sampling rate : 48.0 kHz
Frame rate : 31.250 FPS (1536 SPF)
Bit depth : 16 bits
Compression mode : Lossy
Stream size : 511 MiB (10%)
Title : Dub [Netflix]
Language : Russian
Service kind : Complete Main
Default : Yes
Forced : No

Audio #2
ID : 3
Format : AC-3
Format/Info : Audio Coding 3
Commercial name : Dolby Digital
Codec ID : A_AC3
Duration : 1 h 51 min
Bit rate mode : Constant
Bit rate : 640 kb/s
Channel(s) : 6 channels
Channel layout : L R C LFE Ls Rs
Sampling rate : 48.0 kHz
Frame rate : 31.250 FPS (1536 SPF)
Bit depth : 16 bits
Compression mode : Lossy
Stream size : 510 MiB (10%)
Language : English
Service kind : Complete Main
Default : No
Forced : No

Text #1
ID : 4
Format : UTF-8
Codec ID : S_TEXT/UTF8
Codec ID/Info : UTF-8 Plain Text
Duration : 1 h 50 min
Bit rate : 3 b/s
Count of elements : 47
Stream size : 2.55 KiB (0%)
Title : Forced
Language : Russian
Default : Yes
Forced : Yes

Text #2
ID : 5
Format : UTF-8
Codec ID : S_TEXT/UTF8
Codec ID/Info : UTF-8 Plain Text
Duration : 1 h 50 min
Bit rate : 119 b/s
Count of elements : 1990
Stream size : 96.9 KiB (0%)
Title : Full
Language : Russian
Default : No
Forced : No

Text #3
ID : 6
Format : UTF-8
Codec ID : S_TEXT/UTF8
Codec ID/Info : UTF-8 Plain Text
Duration : 1 h 51 min
Bit rate : 89 b/s
Count of elements : 2210
Stream size : 73.1 KiB (0%)
Language : English
Default : No
Forced : No

Menu
00:00:00.000 : :Chapter 01
00:08:02.774 : :Chapter 02
00:17:38.557 : :Chapter 03
00:27:55.924 : :Chapter 04
00:35:34.466 : :Chapter 05
00:41:22.438 : :Chapter 06
00:49:58.996 : :Chapter 07
00:59:05.208 : :Chapter 08
01:08:15.883 : :Chapter 09
01:17:30.563 : :Chapter 10
01:23:12.196 : :Chapter 11
01:33:29.270 : :Chapter 12
01:43:14.021 : :Chapter 13
01:46:54.742 : :Chapter 14
Cкриншот1 Шафт / Shaft (2019) BDRip 1080p [HEVC] 10 bit от HANNIBAL
Загружается...
Cкриншот2 Шафт / Shaft (2019) BDRip 1080p [HEVC] 10 bit от HANNIBAL
Загружается...
Cкриншот3 Шафт / Shaft (2019) BDRip 1080p [HEVC] 10 bit от HANNIBAL
Загружается...
Cкриншот4 Шафт / Shaft (2019) BDRip 1080p [HEVC] 10 bit от HANNIBAL
Загружается...
СэмплТоррентМагнет

Кнопки "Позвать в чате", "Спасибо" и "Пожертвование" доступны только зарегистрированным/авторизованным пользователям!

Поблагодарили: 6
375509, D16T, Kaban, pr3ss, VadimM, xapyga
02.11.2019  16:06:44
0
60
3
0
5.09 ГБ

Добавление нового комментария

Добавление комментариев доступно только зарегистрированным/авторизованным пользователям.