Регистрация / Смена пароля

💬 Мини-чат

moonson: Alex302, ну, сообственно туда всем нашим врагам и дорога. Жалко только враг Жан-Поля застрял на 16 % и ни туда, и ни сюда 😄
Alex302: moonson, труп вашего врага растащило вороньё)
  • Spartanec1308
  • ancestor87
  • COOLGRAND
  • garant3v
  • Korbis
Отправка сообщений доступно только зарегистрированным/авторизованным пользователям.
Онлайн (за 10 мин.): 5

В осаде / Under Siege (1992) BDRip 1080p [HEVC] 10 bit от joker63

HEVC
10 bit
Обложка В осаде / Under Siege (1992) BDRip 1080p [HEVC] 10 bit от joker63 Год: 1992
Страна: Франция, США
Жанр: Боевик, Триллер
Продолжительность: 01:42:31

Режиссер: Эндрю Дэвис
В ролях: Стивен Сигал, Томми Ли Джонс, Гэри Бьюзи, Эрика Элениак, Колм Мини, Патрик О`Нил, Энди Романо, Ник Манкузо, Дэмиан Чапа, Трой Эванс, Дэвид МакНайт, Ли Хинтон, Гленн Моршауэр, Лео Александр, Джон Роттгер, Брэд Ри, Майкл Уэлден

Описание: Террористы — бывшая элита коммандос — под видом сопровождения рок-группы, которая должна выступить перед военными моряками, пробираются на корабль с ядерным оружием. Расправившись с основной частью команды, они пытаются шантажировать правительство США. Все для захватчиков судна складывалось благополучно до тех пор, пока они не решили изолировать повара — бывшего морского пехотинца. Кок не мог стерпеть такого издевательства: он практически в одиночку хоронит планы подонков один за другим.

КиноПоиск
7.329 29734
IMDb
6.5
74092


Видео: 1914x1080, 7755 Kbps
Аудио1: AC3, 2 ch, 192 Kbps -
Русский, Дублированный (ОРТ)
Аудио2: AC3, 6 ch, 448 Kbps -
Русский, Многоголосый (Гемини-фильм R5)
Аудио3: AC3, 6 ch, 448 Kbps -
Русский, Двухголосый (Тивионика)
Аудио4: AC3, 2 ch, 192 Kbps -
Русский, Многоголосый (НТВ)
Аудио5: AC3, 2 ch, 192 Kbps -
Русский, Двухголосый (РенТВ)
Аудио6: AC3, 2 ch, 192 Kbps -
Русский, Многоголосый (ТВЦ)
Аудио7: AC3, 6 ch, 640 Kbps -
Русский, Авторский (А. Гаврилов)
Аудио8: AC3, 2 ch, 192 Kbps -
Русский, Авторский (В. Горчаков)
Аудио9: AC3, 6 ch, 640 Kbps -
Английский, Оригинал
Субтитры: Нет

Как за пару секунд удалить ненужные аудиодорожки и субтитры (Внимание! После удаления вы не сможете поддержать раздачу)

Медиаинфо
Общее
Уникальный идентификатор : 106299233160457952059811451675786444771 (0x4FF87CD4B960B8827218E40317B17FE3)
Полное имя : F:\Ст.Сигал\В осаде (Захват) Under Siege 1992 1080p.HEVC 10 bit.mkv
Формат : Matroska
Версия формата : Version 4
Размер файла : 7,96 Гбайт
Продолжительность : 1 ч. 42 м.
Общий поток : 11,1 Мбит/сек
Название фильма : В осаде (Захват) / Under Siege / 1992_рип_от_Joker63
Программа кодирования : XviD4PSP 7.0.493 PRO
Библиотека кодирования : Lavf57.71.100
Обложка : Yes
ErrorDetectionType : Per level 1
Attachments : cover.jpg
ENCODING_INFO : MATROSKA,WEBM > MKV 1080p 10-bit / VC1 > X265 CBR 8000kbps Medium / AC3 > AC3 CBR 192kbps / AC3 > AC3 CBR 448kbps / AC3 > AC3 CBR 448kbps / AC3 > AC3 CBR 192kbps / AC3 > AC3 CBR 192kbps / AC3 > AC3 CBR 192kbps / AC3 > AC3 CBR 640kbps / AC3 > AC3 CBR 192kbps / AC3 > AC3 CBR 640kbps
Язык : und

Видео
Идентификатор : 1
Формат : HEVC
Формат/Информация : High Efficiency Video Coding
Профиль формата : Main 10@L5.1@Main
Идентификатор кодека : V_MPEGH/ISO/HEVC
Продолжительность : 1 ч. 42 м.
Битрейт : 7755 Кбит/сек
Ширина : 1914 пикселей
Высота : 1080 пикселей
Соотношение сторон : 16:9
Режим частоты кадров : Постоянный
Частота кадров : 23,976 (24000/1001) кадра/сек
Цветовое пространство : YUV
Субдискретизация насыщенности : 4:2:0
Битовая глубина : 10 бит
Бит/(Пиксели*Кадры) : 0.156
Размер потока : 5,55 Гбайт (70%)
Библиотека кодирования : x265 3.1+7-147fb92c5ed5:[Windows][clang 8.0.0][64 bit] 10bit
Настройки программы : cpuid=1111039 / frame-threads=13 / wpp / no-pmode / no-pme / no-psnr / no-ssim / log-level=3 / input-csp=1 / input-res=1914x1080 / interlace=0 / total-frames=0 / level-idc=51 / high-tier=1 / uhd-bd=0 / ref=5 / allow-non-conformance / no-repeat-headers / annexb / no-aud / no-hrd / info / hash=0 / no-temporal-layers / open-gop / min-keyint=24 / keyint=240 / gop-lookahead=0 / bframes=6 / b-adapt=2 / b-pyramid / bframe-bias=0 / rc-lookahead=20 / lookahead-slices=6 / scenecut=40 / radl=0 / no-splice / no-intra-refresh / ctu=64 / min-cu-size=8 / no-rect / no-amp / max-tu-size=32 / tu-inter-depth=1 / tu-intra-depth=1 / limit-tu=0 / rdoq-level=0 / dynamic-rd=0.00 / no-ssim-rd / signhide / no-tskip / nr-intra=0 / nr-inter=0 / no-constrained-intra / strong-intra-smoothing / max-merge=3 / limit-refs=1 / no-limit-modes / me=1 / subme=7 / merange=57 / temporal-mvp / no-hme / weightp / no-weightb / no-analyze-src-pics / deblock=-2:-2 / sao / no-sao-non-deblock / rd=3 / early-skip / rskip / no-fast-intra / no-tskip-fast / no-cu-lossless / b-intra / no-splitrd-skip / rdpenalty=0 / psy-rd=2.00 / psy-rdoq=0.00 / no-rd-refine / no-lossless / cbqpoffs=0 / crqpoffs=0 / rc=cbr / bitrate=8000 / qcomp=0.60 / qpstep=4 / stats-write=0 / stats-read=0 / vbv-maxrate=8000 / vbv-bufsize=5714 / vbv-init=0.9 / ipratio=1.40 / pbratio=1.30 / aq-mode=2 / aq-strength=1.00 / cutree / zone-count=0 / no-strict-cbr / qg-size=32 / no-rc-grain / qpmax=69 / qpmin=0 / no-const-vbv / sar=1 / overscan=0 / videoformat=5 / range=0 / colorprim=1 / transfer=1 / colormatrix=1 / chromaloc=0 / display-window=0cll=0,0 / min-luma=0 / max-luma=1023 / log2-max-poc-lsb=8 / vui-timing-info / vui-hrd-info / slices=1 / no-opt-qp-pps / no-opt-ref-list-length-pps / no-multi-pass-opt-rps / scenecut-bias=0.05 / no-opt-cu-delta-qp / no-aq-motion / no-hdr / no-hdr-opt / no-dhdr10-opt / no-idr-recovery-sei / analysis-reuse-level=5 / scale-factor=0 / refine-intra=0 / refine-inter=0 / refine-mv=0 / refine-ctu-distortion=0 / no-limit-sao / ctu-info=0 / no-lowpass-dct / refine-analysis-type=449714106 / copy-pic=1 / max-ausize-factor=1.0 / no-dynamic-refine / no-single-sei / no-hevc-aq / no-svt / no-field / qp-adaptation-range=1.00
Default : Да
Forced : Нет
Цветовой диапазон : Limited
Основные цвета : BT.709
Характеристики трансфера : BT.709
Коэффициенты матрицы : BT.709

Аудио #1
Идентификатор : 2
Формат : AC-3
Формат/Информация : Audio Coding 3
Коммерческое название : Dolby Digital
Идентификатор кодека : A_AC3
Продолжительность : 1 ч. 42 м.
Вид битрейта : Постоянный
Битрейт : 192 Кбит/сек
Каналы : 2 канала
ChannelLayout : L R
Частота : 48,0 КГц
Частота кадров : 31,250 кадров/сек (1536 SPF)
Битовая глубина : 32 бит
Метод сжатия : С потерями
Размер потока : 141 Мбайт (2%)
Заголовок : Дублированный (ОРТ),
Язык : Russian
ServiceKind/String : Complete Main
Default : Да
Forced : Нет

Аудио #2
Идентификатор : 3
Формат : AC-3
Формат/Информация : Audio Coding 3
Коммерческое название : Dolby Digital
Идентификатор кодека : A_AC3
Продолжительность : 1 ч. 42 м.
Вид битрейта : Постоянный
Битрейт : 448 Кбит/сек
Каналы : 6 каналов
ChannelLayout : L R C LFE Ls Rs
Частота : 48,0 КГц
Частота кадров : 31,250 кадров/сек (1536 SPF)
Битовая глубина : 32 бит
Метод сжатия : С потерями
Размер потока : 329 Мбайт (4%)
Заголовок : Многоголосый "Гемини-фильм R5")
Язык : Russian
ServiceKind/String : Complete Main
Default : Нет
Forced : Нет

Аудио #3
Идентификатор : 4
Формат : AC-3
Формат/Информация : Audio Coding 3
Коммерческое название : Dolby Digital
Идентификатор кодека : A_AC3
Продолжительность : 1 ч. 42 м.
Вид битрейта : Постоянный
Битрейт : 448 Кбит/сек
Каналы : 6 каналов
ChannelLayout : L R C LFE Ls Rs
Частота : 48,0 КГц
Частота кадров : 31,250 кадров/сек (1536 SPF)
Битовая глубина : 32 бит
Метод сжатия : С потерями
Размер потока : 329 Мбайт (4%)
Заголовок : (Двухголосый Тивионика)
Язык : Russian
ServiceKind/String : Complete Main
Default : Нет
Forced : Нет

Аудио #4
Идентификатор : 5
Формат : AC-3
Формат/Информация : Audio Coding 3
Коммерческое название : Dolby Digital
Идентификатор кодека : A_AC3
Продолжительность : 1 ч. 42 м.
Вид битрейта : Постоянный
Битрейт : 192 Кбит/сек
Каналы : 2 канала
ChannelLayout : L R
Частота : 48,0 КГц
Частота кадров : 31,250 кадров/сек (1536 SPF)
Битовая глубина : 32 бит
Метод сжатия : С потерями
Размер потока : 141 Мбайт (2%)
Заголовок : Многоголосый НТВ
Язык : Russian
ServiceKind/String : Complete Main
Default : Нет
Forced : Нет

Аудио #5
Идентификатор : 6
Формат : AC-3
Формат/Информация : Audio Coding 3
Коммерческое название : Dolby Digital
Идентификатор кодека : A_AC3
Продолжительность : 1 ч. 42 м.
Вид битрейта : Постоянный
Битрейт : 192 Кбит/сек
Каналы : 2 канала
ChannelLayout : L R
Частота : 48,0 КГц
Частота кадров : 31,250 кадров/сек (1536 SPF)
Битовая глубина : 32 бит
Метод сжатия : С потерями
Размер потока : 141 Мбайт (2%)
Заголовок : Двухголосый РенТВ
Язык : Russian
ServiceKind/String : Complete Main
Default : Нет
Forced : Нет

Аудио #6
Идентификатор : 7
Формат : AC-3
Формат/Информация : Audio Coding 3
Коммерческое название : Dolby Digital
Идентификатор кодека : A_AC3
Продолжительность : 1 ч. 42 м.
Вид битрейта : Постоянный
Битрейт : 192 Кбит/сек
Каналы : 2 канала
ChannelLayout : L R
Частота : 48,0 КГц
Частота кадров : 31,250 кадров/сек (1536 SPF)
Битовая глубина : 32 бит
Метод сжатия : С потерями
Размер потока : 141 Мбайт (2%)
Заголовок : Многоголосый ТВЦ
Язык : Russian
ServiceKind/String : Complete Main
Default : Нет
Forced : Нет

Аудио #7
Идентификатор : 8
Формат : AC-3
Формат/Информация : Audio Coding 3
Коммерческое название : Dolby Digital
Идентификатор кодека : A_AC3
Продолжительность : 1 ч. 42 м.
Вид битрейта : Постоянный
Битрейт : 640 Кбит/сек
Каналы : 6 каналов
ChannelLayout : L R C LFE Ls Rs
Частота : 48,0 КГц
Частота кадров : 31,250 кадров/сек (1536 SPF)
Битовая глубина : 32 бит
Метод сжатия : С потерями
Размер потока : 469 Мбайт (6%)
Заголовок : Авторский А. Гаврилов
Язык : Russian
ServiceKind/String : Complete Main
Default : Нет
Forced : Нет

Аудио #8
Идентификатор : 9
Формат : AC-3
Формат/Информация : Audio Coding 3
Коммерческое название : Dolby Digital
Идентификатор кодека : A_AC3
Продолжительность : 1 ч. 42 м.
Вид битрейта : Постоянный
Битрейт : 192 Кбит/сек
Каналы : 2 канала
ChannelLayout : L R
Частота : 48,0 КГц
Частота кадров : 31,250 кадров/сек (1536 SPF)
Битовая глубина : 32 бит
Метод сжатия : С потерями
Размер потока : 141 Мбайт (2%)
Заголовок : Авторский В. Горчаков
Язык : Russian
ServiceKind/String : Complete Main
Default : Нет
Forced : Нет

Аудио #9
Идентификатор : 10
Формат : AC-3
Формат/Информация : Audio Coding 3
Коммерческое название : Dolby Digital
Идентификатор кодека : A_AC3
Продолжительность : 1 ч. 42 м.
Вид битрейта : Постоянный
Битрейт : 640 Кбит/сек
Каналы : 6 каналов
ChannelLayout : L R C LFE Ls Rs
Частота : 48,0 КГц
Частота кадров : 31,250 кадров/сек (1536 SPF)
Битовая глубина : 32 бит
Метод сжатия : С потерями
Размер потока : 469 Мбайт (6%)
Заголовок : Original
Язык : English
ServiceKind/String : Complete Main
Default : Нет
Forced : Нет
Cкриншот1 В осаде / Under Siege (1992) BDRip 1080p [HEVC] 10 bit от joker63
Загружается...
Cкриншот2 В осаде / Under Siege (1992) BDRip 1080p [HEVC] 10 bit от joker63
Загружается...
Cкриншот3 В осаде / Under Siege (1992) BDRip 1080p [HEVC] 10 bit от joker63
Загружается...
Cкриншот4 В осаде / Under Siege (1992) BDRip 1080p [HEVC] 10 bit от joker63
Загружается...
Сэмпл Торрент🧲 Магнет

Кнопки "Позвать в чате" и "Спасибо" доступны только зарегистрированным/авторизованным пользователям!

Файлы: 1
  • В осаде (Захват) Under Siege 1992 1080p.HEVC 10 bit.mkv   7.96 ГБ
Поблагодарили: 20
375509, 7654321, alexyak, cnn, Gadzilla 2019, han-nik, ivs5, joker1001, Kiran, msm, Nuclear70, Remontaz, SaN161NeK, SoulBoy, Stigmatlazy, svibog123, SYNC80001, Vanya Vetrov, vikievan, vladd37
joker63
4227107.96 ГБ

Добавление нового комментария

Добавление комментариев доступно только зарегистрированным/авторизованным пользователям.
Аватар Gadzilla 2019
  Gadzilla 2019  
Если возможно все части Нико до 2000 остальное уже жесть)))
Аватар cnn
  cnn  
joker63 писал(а):
Встал на 2ю.
С Сигалом залейте еще фильмы если можно
Аватар joker63
  joker63  
cnn писал(а):
спасибо 2 часть тоже залейте если есть
Встал на 2ю.
Аватар cnn
  cnn  
спасибо 2 часть тоже залейте если есть