Регистрация / Смена пароля

💬 Мини-чат

moonson: Alex302, ну, сообственно туда всем нашим врагам и дорога. Жалко только враг Жан-Поля застрял на 16 % и ни туда, и ни сюда 😄
Alex302: moonson, труп вашего врага растащило вороньё)
  • Admin
  • alexposad
  • cbyc
  • garant3v
  • igor302
  • Schumer
Отправка сообщений доступно только зарегистрированным/авторизованным пользователям.
Онлайн (за 10 мин.): 6

Макс Пэйн / Max Payne (2008) [Unrated] BDRip 1080p [HEVC] 10 bit от AlexTwitt

HEVC
10 bit
Обложка Макс Пэйн / Max Payne (2008) [Unrated] BDRip 1080p [HEVC] 10 bit от AlexTwitt Год: 2008
Страна: США, Канада
Студия: Abandon Entertainment, Collision Entertainment, Depth Entertainment
Жанр: Боевик, Триллер, Драма, Криминал
Продолжительность: 01:42:59

Режиссер: Джон Мур
В ролях: Марк Уолберг, Мила Кунис, Бо Бриджес, Лудакрис, Крис О’Доннелл, Донал Лог, Амори Ноласко, Кейт Бёртон, Ольга Куриленко, Ротафорд Грэй

Описание: Сотруднику Управления по борьбе с наркотиками не на что жаловаться. У него есть все: отличная работа, любящая жена и маленький ребенок. Словом, не жизнь, а американская мечта, которая однажды оборачивается самым страшным кошмаром: какой-то психопат убивает его семью. Отныне у Макса только одна цель — отомстить. Но месть осложняется тем, что его несправедливо обвиняют в убийстве, и все, кому не лень, начинают на него охоту — Полицейское управление Нью-Йорка, уголовный мир и городские власти. Теперь ему уже действительно нечего терять и нечего опасаться. При такой отчаянной решимости только Макс Пэйн способен пролить свет на все тайны, связанные с уничтожением его семьи, и главное, получить удовлетворение от мести, которой он так жаждет.


Видео: 1920x800, 5604 Kbps
Аудио: DTS, 6 ch, 768 Kbps -
Русский, Дублированный (Лицензия)
Субтитры: Русские (форсированные)

Медиаинфо
Общее
Уникальный идентификатор : 72685903513290689034071095918366201818 (0x36AECBBA46DE0EFA2ECF358BE11A97DA)
Полное имя : D:\encoded\Max Payne Unrated BDRip 1080p [HEVC] 10 bit.mkv
Формат : Matroska
Версия формата : Version 4
Размер файла : 4,68 Гбайт
Продолжительность : 1 ч. 42 м.
Общий поток : 6502 Кбит/сек
Программа кодирования : XviD4PSP 8.0.73
Библиотека кодирования : Lavf58.20.100
ErrorDetectionType : Per level 1
ENCODING_INFO : MATROSKA,WEBM > MKV

Видео
Идентификатор : 1
Формат : HEVC
Формат/Информация : High Efficiency Video Coding
Профиль формата : Main 10@L5.1@High
Идентификатор кодека : V_MPEGH/ISO/HEVC
Продолжительность : 1 ч. 42 м.
Битрейт : 5604 Кбит/сек
Ширина : 1920 пикселей
Высота : 800 пикселей
Соотношение сторон : 2,40:1
Режим частоты кадров : Постоянный
Частота кадров : 23,976 (24000/1001) кадра/сек
Цветовое пространство : YUV
Субдискретизация насыщенности : 4:2:0
Битовая глубина : 10 бит
Бит/(Пиксели*Кадры) : 0.152
Размер потока : 4,03 Гбайт (86%)
Заголовок : Max Payne =stimco=
Библиотека кодирования : x265 3.1+7-147fb92c5ed5:[Windows][clang 8.0.0][64 bit] 10bit
Настройки программы : cpuid=1049583 / frame-threads=5 / numa-pools=4 / wpp / no-pmode / no-pme / no-psnr / no-ssim / log-level=3 / input-csp=1 / input-res=1920x800 / interlace=0 / total-frames=0 / level-idc=51 / high-tier=1 / uhd-bd=0 / ref=5 / allow-non-conformance / no-repeat-headers / annexb / no-aud / no-hrd / info / hash=0 / no-temporal-layers / open-gop / min-keyint=23 / keyint=240 / gop-lookahead=0 / bframes=8 / b-adapt=2 / b-pyramid / bframe-bias=0 / rc-lookahead=20 / lookahead-slices=5 / scenecut=40 / radl=0 / no-splice / no-intra-refresh / ctu=64 / min-cu-size=8 / no-rect / no-amp / max-tu-size=32 / tu-inter-depth=1 / tu-intra-depth=1 / limit-tu=0 / rdoq-level=0 / dynamic-rd=0.00 / no-ssim-rd / signhide / no-tskip / nr-intra=0 / nr-inter=0 / no-constrained-intra / no-strong-intra-smoothing / max-merge=2 / limit-refs=3 / no-limit-modes / me=3 / subme=7 / merange=57 / temporal-mvp / no-hme / weightp / no-weightb / no-analyze-src-pics / deblock=-3:-3 / no-sao / no-sao-non-deblock / rd=3 / no-early-skip / rskip / no-fast-intra / no-tskip-fast / no-cu-lossless / no-b-intra / no-splitrd-skip / rdpenalty=0 / psy-rd=2.00 / psy-rdoq=0.00 / no-rd-refine / no-lossless / cbqpoffs=0 / crqpoffs=0 / rc=crf / crf=19.0 / qcomp=0.60 / qpstep=4 / stats-write=0 / stats-read=0 / vbv-maxrate=50000 / vbv-bufsize=50000 / vbv-init=0.9 / crf-max=30.0 / crf-min=0.0 / ipratio=1.40 / pbratio=1.30 / aq-mode=2 / aq-strength=1.00 / no-cutree / zone-count=0 / no-strict-cbr / qg-size=32 / no-rc-grain / qpmax=69 / qpmin=0 / no-const-vbv / sar=1 / overscan=0 / videoformat=5 / range=0 / colorprim=2 / transfer=2 / colormatrix=2 / chromaloc=0 / display-window=0cll=0,0 / min-luma=0 / max-luma=1023 / log2-max-poc-lsb=8 / vui-timing-info / vui-hrd-info / slices=1 / no-opt-qp-pps / no-opt-ref-list-length-pps / no-multi-pass-opt-rps / scenecut-bias=0.05 / no-opt-cu-delta-qp / no-aq-motion / no-hdr / no-hdr-opt / no-dhdr10-opt / no-idr-recovery-sei / analysis-reuse-level=5 / scale-factor=0 / refine-intra=0 / refine-inter=0 / refine-mv=0 / refine-ctu-distortion=0 / no-limit-sao / ctu-info=0 / no-lowpass-dct / refine-analysis-type=1440486528 / copy-pic=1 / max-ausize-factor=1.0 / no-dynamic-refine / no-single-sei / hevc-aq / no-svt / no-field / qp-adaptation-range=1.00
Язык : English
Default : Да
Forced : Нет
Цветовой диапазон : Limited
ENCODING_INFO : H264 > X265 CRF 19.0 Medium

Аудио
Идентификатор : 2
Формат : DTS
Формат/Информация : Digital Theater Systems
Идентификатор кодека : A_DTS
Продолжительность : 1 ч. 42 м.
Вид битрейта : Постоянный
Битрейт : 768 Кбит/сек
Каналы : 6 каналов
ChannelLayout : C L R Ls Rs LFE
Частота : 48,0 КГц
Частота кадров : 93,750 кадра/сек (512 SPF)
Битовая глубина : 24 бит
Метод сжатия : С потерями
Размер потока : 566 Мбайт (12%)
Заголовок : |Дубляж, Blu-ray CEE|
Язык : Russian
Default : Да
Forced : Нет
ENCODING_INFO : DTS > COPY Безопасное

Текст
Идентификатор : 3
Формат : UTF-8
Идентификатор кодека : S_TEXT/UTF8
Идентификатор кодека/Информация : UTF-8 Plain Text
Заголовок : forced
Язык : Russian
Default : Да
Forced : Нет
ENCODING_INFO : SUBRIP > COPY Быстрое

Меню
00:00:00.000 : :Chapter 01
00:01:55.739 : :Chapter 02
00:04:15.671 : :Chapter 03
00:08:23.461 : :Chapter 04
00:13:49.202 : :Chapter 05
00:17:04.731 : :Chapter 06
00:21:18.359 : :Chapter 07
00:23:20.647 : :Chapter 08
00:26:25.416 : :Chapter 09
00:30:33.205 : :Chapter 10
00:32:48.423 : :Chapter 11
00:34:54.634 : :Chapter 12
00:37:36.085 : :Chapter 13
00:44:08.853 : :Chapter 14
00:50:37.658 : :Chapter 15
00:55:12.809 : :Chapter 16
01:01:41.947 : :Chapter 17
01:04:22.148 : :Chapter 18
01:07:55.653 : :Chapter 19
01:15:17.054 : :Chapter 20
01:18:05.845 : :Chapter 21
01:21:21.417 : :Chapter 22
01:23:03.811 : :Chapter 23
01:26:23.469 : :Chapter 24
01:29:02.127 : :Chapter 25
01:33:31.104 : :Chapter 26
01:35:18.337 : :Chapter 27
01:41:18.697 : :Chapter 28
Cкриншот1 Макс Пэйн / Max Payne (2008) [Unrated] BDRip 1080p [HEVC] 10 bit от AlexTwitt
Загружается...
Cкриншот2 Макс Пэйн / Max Payne (2008) [Unrated] BDRip 1080p [HEVC] 10 bit от AlexTwitt
Загружается...
Cкриншот3 Макс Пэйн / Max Payne (2008) [Unrated] BDRip 1080p [HEVC] 10 bit от AlexTwitt
Загружается...
Cкриншот4 Макс Пэйн / Max Payne (2008) [Unrated] BDRip 1080p [HEVC] 10 bit от AlexTwitt
Загружается...
Сэмпл Торрент🧲 Магнет

Кнопки "Позвать в чате" и "Спасибо" доступны только зарегистрированным/авторизованным пользователям!

Файлы: 1
  • Max Payne Unrated BDRip 1080p [HEVC] 10 bit.mkv   4.68 ГБ
Поблагодарили: 10
375509, 7654321, and50, Johnny Cassidy, LastSurviv0r, mat, MIGRANT, nelii, Shuzer, ZuMik
Admin
0156004.68 ГБ

Добавление нового комментария

Добавление комментариев доступно только зарегистрированным/авторизованным пользователям.