Регистрация / Смена пароля

💬 Мини-чат

moonson: Alex302, ну, сообственно туда всем нашим врагам и дорога. Жалко только враг Жан-Поля застрял на 16 % и ни туда, и ни сюда 😄
Alex302: moonson, труп вашего врага растащило вороньё)
  • Spartanec1308
  • ancestor87
  • COOLGRAND
  • garant3v
  • Korbis
Отправка сообщений доступно только зарегистрированным/авторизованным пользователям.
Онлайн (за 10 мин.): 5

Игра престолов / Game of Thrones (2012) [2 сезон] BDRip 1080p [HEVC] 10 bit от OldGamer (RG HEVC-CLUB)

HEVC
10 bit
Обложка Игра престолов / Game of Thrones (2012) [2 сезон] BDRip 1080p [HEVC] 10 bit от OldGamer (RG HEVC-CLUB) Год: 2012
Страна: США, Великобритания
Студия: HBO
Жанр: Фэнтези, Драма, Боевик, Мелодрама
Продолжительность: 09:04:07

Режиссер: Дэвид Наттер, Алан Тейлор, Алекс Грейвз
В ролях: Питер Динклэйдж, Лина Хиди, Эмилия Кларк, Кит Харингтон, Софи Тёрнер, Мэйси Уильямс, Николай Костер-Вальдау, Иэн Глен, Алфи Аллен, Джон Брэдли

Описание: После смерти короля Роберта Баратеона и казни лорда Эддарда Старка Семь Королевств погружаются в гражданскую войну. Мощный дом Ланнистеров поддерживает права Джоффри Баратеона на Железный трон, а против них и против друг друга выступают Ренли и Станнис Баратеоны, причём последний заручился поддержкой таинственной жрицы с далёкого востока. Также Ланнистерам противостоит Робб Старк, которого провозгласили король Севера, желающий отомстить за своего отца и отделиться от Семи Королевств. Однако пока он воюет на юге на его земли положил глаз Бэйлон Грейджой с Железных островов. Тем временем в Эссосе остатки кхаласара Дейенерис Таргариен нашли приют в богатом городе Кварте, правители которого не прочь забрать себе новорождённых драконов, а за Стеной на Севере отряд Ночного дозора узнаёт о большом сборе одичалых.

Серии
S02E01.The.North.Remembers.mkv
S02E02.The.Night.Lands.mkv
S02E03.What.Is.Dead.May.Never.Die.mkv
S02E04.Garden.of.Bones.mkv
S02E05.The.Ghost.of.Harrenhal.mkv
S02E06.The.Old.Gods.and.the.New.mkv
S02E07.A.Man.Without.Honor.mkv
S02E08.The.Prince.of.Winterfell.mkv
S02E09.Blackwater.mkv
S02E10.Valar.Morghulis.mkv
КиноПоиск
8.997 538537
IMDb
9.3
1678748


Видео: 1920x1080 (16:9), 4278-5706 кбит/сек, 0.093 бит/(Пиксели*Кадры), 23,976 (24000/1001) кадра/сек, HEVC (Main 10@L4.1@High) 10 бит
Аудио1: AC3, 2 ch, 224 Kbps -
Русский, Дублированный (Ren-TV)
Аудио2: AC3, 2 ch, 192 Kbps -
Русский, Дублированный (Amedia)
Аудио3: AC3, 6 ch, 640 Kbps -
Русский, Многоголосый (AlexFilm)
Аудио4: AC3, 6 ch, 640 Kbps -
Русский, Многоголосый (Lostfilm)
Аудио5: AC3, 6 ch, 640 Kbps -
Русский, Многоголосый (FOXlife)
Аудио6: AC3, 6 ch, 640 Kbps -
Русский, Многоголосый (BBC Saint-Petersburg)
Аудио7: AC3, 6 ch, 640 Kbps -
Английский, Оригинал
Субтитры: Русские форсированные и полные (ASS, SRT), English full (SRT)

Как за пару секунд удалить ненужные аудиодорожки и субтитры (Внимание! После удаления вы не сможете поддержать раздачу)

Лог (x265 info)
x265 [info]: frame I: 325, Avg QP:17.77 kb/s: 18722.10
x265 [info]: frame P: 13335, Avg QP:19.10 kb/s: 10126.25
x265 [info]: frame B: 63296, Avg QP:21.38 kb/s: 3418.15
x265 [info]: Weighted P-Frames: Y:10.2% UV:7.7%
x265 [info]: Weighted B-Frames: Y:9.7% UV:6.6%
x265 [info]: consecutive B-frames: 1.2% 1.4% 16.5% 16.8% 11.8% 27.0% 7.6% 7.5% 3.2% 2.2% 2.0% 1.5% 0.6% 0.3% 0.4%
x265 [info]: encoded 76956 frames in 34768.42s (2.21 fps), 4645.17 kb/s, Avg QP:20.97
Медиаинфо
Формат : Matroska
Версия формата : Version 4
Размер файла : 3,09 Гбайт
Продолжительность : 53 м. 59 с.
Общий поток : 8201 Кбит/сек
Дата кодирования : UTC 2019-10-18 13:33:45
Программа кодирования : mkvmerge v38.0.0 ('The Silent Type') 64-bit
Библиотека кодирования : libebml v1.3.9 + libmatroska v1.5.2

Видео
Идентификатор : 1
Формат : HEVC
Формат/Информация : High Efficiency Video Coding
Профиль формата : Main 10@L4.1@High
Идентификатор кодека : V_MPEGH/ISO/HEVC
Продолжительность : 53 м. 29 с.
Битрейт : 4646 Кбит/сек
Ширина : 1920 пикселей
Высота : 1080 пикселей
Соотношение сторон : 16:9
Режим частоты кадров : Постоянный
Частота кадров : 23,976 (24000/1001) кадра/сек
Цветовое пространство : YUV
Субдискретизация насыщенности : 4:2:0
Битовая глубина : 10 бит
Бит/(Пиксели*Кадры) : 0.093
Размер потока : 1,74 Гбайт (56%)
Заголовок : Game Of Trones S02E02 / Rip by OldGamer
Библиотека кодирования : x265 2.9+15-81373aab81df:[Windows][GCC 8.2.0][64 bit] 10bit
Настройки программы : cpuid=1111039 / frame-threads=3 / numa-pools=8 / wpp / no-pmode / no-pme / psnr / ssim / log-level=2 / input-csp=1 / input-res=1920x1080 / interlace=0 / total-frames=76956 / level-idc=41 / high-tier=1 / uhd-bd=0 / ref=5 / no-allow-non-conformance / no-repeat-headers / annexb / no-aud / no-hrd / info / hash=0 / no-temporal-layers / open-gop / min-keyint=23 / keyint=240 / gop-lookahead=0 / bframes=14 / b-adapt=2 / b-pyramid / bframe-bias=0 / rc-lookahead=80 / lookahead-slices=0 / scenecut=40 / radl=0 / no-splice / no-intra-refresh / ctu=64 / min-cu-size=8 / rect / amp / max-tu-size=32 / tu-inter-depth=4 / tu-intra-depth=4 / limit-tu=1 / rdoq-level=2 / dynamic-rd=0.00 / no-ssim-rd / signhide / no-tskip / nr-intra=0 / nr-inter=0 / no-constrained-intra / no-strong-intra-smoothing / max-merge=5 / limit-refs=3 / limit-modes / me=3 / subme=7 / merange=57 / temporal-mvp / weightp / weightb / no-analyze-src-pics / deblock=-3:-3 / no-sao / no-sao-non-deblock / rd=6 / no-early-skip / rskip / no-fast-intra / no-tskip-fast / no-cu-lossless / b-intra / no-splitrd-skip / rdpenalty=0 / psy-rd=2.00 / psy-rdoq=1.00 / no-rd-refine / no-lossless / cbqpoffs=0 / crqpoffs=0 / rc=crf / crf=21.0 / qcomp=0.70 / qpstep=4 / stats-write=0 / stats-read=0 / vbv-maxrate=50000 / vbv-bufsize=50000 / vbv-init=0.9 / crf-max=0.0 / crf-min=0.0 / ipratio=1.40 / pbratio=1.30 / aq-mode=2 / aq-strength=0.80 / no-cutree / zone-count=0 / no-strict-cbr / qg-size=32 / no-rc-grain / qpmax=69 / qpmin=0 / no-const-vbv / sar=1 / overscan=0 / videoformat=5 / range=0 / colorprim=2 / transfer=2 / colormatrix=2 / chromaloc=0 / display-window=0 / max-cll=0,0 / min-luma=0 / max-luma=1023 / log2-max-poc-lsb=8 / vui-timing-info / vui-hrd-info / slices=1 / no-opt-qp-pps / no-opt-ref-list-length-pps / no-multi-pass-opt-rps / scenecut-bias=0.00 / no-opt-cu-delta-qp / no-aq-motion / no-hdr / no-hdr-opt / no-dhdr10-opt / no-idr-recovery-sei / analysis-reuse-level=5 / scale-factor=0 / refine-intra=0 / refine-inter=0 / refine-mv=0 / no-limit-sao / ctu-info=0 / no-lowpass-dct / refine-mv-type=0 / copy-pic=1 / max-ausize-factor=1.0 / no-dynamic-refine / no-single-sei
Язык : English
Default : Да
Forced : Нет

Аудио #1
Идентификатор : 2
Формат : AC-3
Формат/Информация : Audio Coding 3
Коммерческое название : Dolby Digital
Идентификатор кодека : A_AC3
Продолжительность : 53 м. 29 с.
Вид битрейта : Постоянный
Битрейт : 224 Кбит/сек
Каналы : 2 канала
Channel layout : L R
Частота : 48,0 КГц
Частота кадров : 31,250 кадров/сек (1536 SPF)
Битовая глубина : 16 бит
Метод сжатия : С потерями
Размер потока : 85,7 Мбайт (3%)
Заголовок : DUB Ren-TV
Язык : Russian
ServiceKind/String : Complete Main
Default : Нет
Forced : Нет

Аудио #2
Идентификатор : 3
Формат : AC-3
Формат/Информация : Audio Coding 3
Коммерческое название : Dolby Digital
Идентификатор кодека : A_AC3
Продолжительность : 53 м. 29 с.
Вид битрейта : Постоянный
Битрейт : 192 Кбит/сек
Каналы : 2 канала
Channel layout : L R
Частота : 48,0 КГц
Частота кадров : 31,250 кадров/сек (1536 SPF)
Битовая глубина : 16 бит
Метод сжатия : С потерями
Размер потока : 73,5 Мбайт (2%)
Заголовок : Kravec-Amedia
Язык : Russian
ServiceKind/String : Complete Main
Default : Да
Forced : Нет

Аудио #3
Идентификатор : 4
Формат : AC-3
Формат/Информация : Audio Coding 3
Коммерческое название : Dolby Digital
Идентификатор кодека : A_AC3
Продолжительность : 53 м. 59 с.
Вид битрейта : Постоянный
Битрейт : 640 Кбит/сек
Каналы : 6 каналов
Channel layout : L R C LFE Ls Rs
Частота : 48,0 КГц
Частота кадров : 31,250 кадров/сек (1536 SPF)
Битовая глубина : 16 бит
Метод сжатия : С потерями
Размер потока : 247 Мбайт (8%)
Заголовок : MVO AlexFilm
Язык : Russian
ServiceKind/String : Complete Main
Default : Нет
Forced : Нет

Аудио #4
Идентификатор : 5
Формат : AC-3
Формат/Информация : Audio Coding 3
Коммерческое название : Dolby Digital
Идентификатор кодека : A_AC3
Продолжительность : 53 м. 29 с.
Вид битрейта : Постоянный
Битрейт : 640 Кбит/сек
Каналы : 6 каналов
Channel layout : L R C LFE Ls Rs
Частота : 48,0 КГц
Частота кадров : 31,250 кадров/сек (1536 SPF)
Битовая глубина : 16 бит
Метод сжатия : С потерями
Размер потока : 245 Мбайт (8%)
Заголовок : MVO Kravec Lostfilm
Язык : Russian
ServiceKind/String : Complete Main
Default : Нет
Forced : Нет

Аудио #5
Идентификатор : 6
Формат : AC-3
Формат/Информация : Audio Coding 3
Коммерческое название : Dolby Digital
Идентификатор кодека : A_AC3
Продолжительность : 53 м. 59 с.
Вид битрейта : Постоянный
Битрейт : 640 Кбит/сек
Каналы : 6 каналов
Channel layout : L R C LFE Ls Rs
Частота : 48,0 КГц
Частота кадров : 31,250 кадров/сек (1536 SPF)
Битовая глубина : 16 бит
Метод сжатия : С потерями
Размер потока : 247 Мбайт (8%)
Заголовок : MVO FOXlife
Язык : Russian
ServiceKind/String : Complete Main
Default : Нет
Forced : Нет

Аудио #6
Идентификатор : 7
Формат : AC-3
Формат/Информация : Audio Coding 3
Коммерческое название : Dolby Digital
Идентификатор кодека : A_AC3
Продолжительность : 53 м. 30 с.
Вид битрейта : Постоянный
Битрейт : 640 Кбит/сек
Каналы : 6 каналов
Channel layout : L R C LFE Ls Rs
Частота : 48,0 КГц
Частота кадров : 31,250 кадров/сек (1536 SPF)
Битовая глубина : 16 бит
Метод сжатия : С потерями
Размер потока : 245 Мбайт (8%)
Заголовок : MVO BBC Saint-Petersburg
Язык : Russian
ServiceKind/String : Complete Main
Default : Нет
Forced : Нет

Аудио #7
Идентификатор : 8
Формат : AC-3
Формат/Информация : Audio Coding 3
Коммерческое название : Dolby Digital
Идентификатор кодека : A_AC3
Продолжительность : 53 м. 29 с.
Вид битрейта : Постоянный
Битрейт : 640 Кбит/сек
Каналы : 6 каналов
Channel layout : L R C LFE Ls Rs
Частота : 48,0 КГц
Частота кадров : 31,250 кадров/сек (1536 SPF)
Битовая глубина : 16 бит
Метод сжатия : С потерями
Размер потока : 245 Мбайт (8%)
Заголовок : English
Язык : English
ServiceKind/String : Complete Main
Default : Нет
Forced : Нет

Текст #1
Идентификатор : 9
Формат : ASS
Идентификатор кодека : S_TEXT/ASS
Идентификатор кодека/Информация : Advanced Sub Station Alpha
Продолжительность : 35 с. 700 мс.
Битрейт : 154 бит/сек
ElementCount : 9
Метод сжатия : Без потерь
Размер потока : 691 байт (0%)
Заголовок : FORCED
Язык : Russian
Default : Да
Forced : Нет

Текст #2
Идентификатор : 10
Формат : UTF-8
Идентификатор кодека : S_TEXT/UTF8
Идентификатор кодека/Информация : UTF-8 Plain Text
Продолжительность : 49 м. 18 с.
Битрейт : 119 бит/сек
ElementCount : 773
Размер потока : 43,0 Кбайт (0%)
Заголовок : 7kingdoms
Язык : Russian
Default : Нет
Forced : Нет

Текст #3
Идентификатор : 11
Формат : UTF-8
Идентификатор кодека : S_TEXT/UTF8
Идентификатор кодека/Информация : UTF-8 Plain Text
Продолжительность : 52 м. 6 с.
Битрейт : 74 бит/сек
ElementCount : 852
Размер потока : 28,5 Кбайт (0%)
Заголовок : Original
Язык : English
Default : Нет
Forced : Нет

Меню
00:00:00.000 : en:Chapter 1
00:01:53.570 : en:Chapter 2
00:08:17.497 : en:Chapter 3
00:17:31.633 : en:Chapter 4
00:24:17.705 : en:Chapter 5
00:32:00.000 : en:Chapter 6
00:39:12.306 : en:Chapter 7
00:52:10.335 : en:Chapter 8
00:53:29.496 : en:Chapter 9
Cкриншот1 Игра престолов / Game of Thrones (2012) [2 сезон] BDRip 1080p [HEVC] 10 bit от OldGamer (RG HEVC-CLUB)
Загружается...
Cкриншот2 Игра престолов / Game of Thrones (2012) [2 сезон] BDRip 1080p [HEVC] 10 bit от OldGamer (RG HEVC-CLUB)
Загружается...
Cкриншот3 Игра престолов / Game of Thrones (2012) [2 сезон] BDRip 1080p [HEVC] 10 bit от OldGamer (RG HEVC-CLUB)
Загружается...
Cкриншот4 Игра престолов / Game of Thrones (2012) [2 сезон] BDRip 1080p [HEVC] 10 bit от OldGamer (RG HEVC-CLUB)
Загружается...
Сэмпл Торрент🧲 Магнет

Кнопки "Позвать в чате" и "Спасибо" доступны только зарегистрированным/авторизованным пользователям!

Раздача обновлена!
Добавлена озвучка Amedia, заменены субтитры.

Файлы: 10
  • Игра.Престолов.Game.Of.Thrones.S02.BDRip-HEVC.1080p
    • S02E01.The.North.Remembers.mkv   3.09 ГБ
    • S02E02.The.Night.Lands.mkv   3.09 ГБ
    • S02E03.What.Is.Dead.May.Never.Die.mkv   3.21 ГБ
    • S02E04.Garden.of.Bones.mkv   2.91 ГБ
    • S02E05.The.Ghost.of.Harrenhal.mkv   3.53 ГБ
    • S02E06.The.Old.Gods.and.the.New.mkv   3.09 ГБ
    • S02E07.A.Man.Without.Honor.mkv   3.05 ГБ
    • S02E08.The.Prince.of.Winterfell.mkv   3.14 ГБ
    • S02E09.Blackwater.mkv   3.08 ГБ
    • S02E10.Valar.Morghulis.mkv   3.95 ГБ
Поблагодарили: 17
Alex302, denon480, icesnoop, iiggyy, Improver, joker63, ko1ob, Korbis, makss333, mat, maximka, MIGRANT, NoMaD, pr3ss, Scythain, Solee, svibog123
OldGamer
328831 (10)  32.13 ГБ

Добавление нового комментария

Добавление комментариев доступно только зарегистрированным/авторизованным пользователям.
Аватар EiffeL
  EiffeL  
Какая Красота!
Это тот редкий случай ,когда много дорожек напользу!
Можно выбрать свою единственную!
Спасибо огромное за проделанную работу!
Аватар OldGamer
  OldGamer  
Zulbay писал(а):
Спасибо, все будете делать?
да
Аватар Zulbay
  Zulbay  
Спасибо, все будете делать?